VERSION	0.00.00	1.03.00
FES_MODE	0
BPM_DEF	146.000	146.000	146.000	146.000
MET_DEF	4	4
RESOLUTION	384
CLK_DEF	384
COMPATIBLE_CODE	MA2

BPM	0	0	146.000
MET	0	0	4	4

STR	5	0	2
SCL	5	0	2	96	480	4
STR	7	0	5
SCR	7	0	5	96	480	3
HLD	9	0	2	384
TTP	9	192	2	B	0	M1
TTP	9	192	3	B	0	M1
HLD	10	0	5	384
TTP	10	192	4	B	0	M1
TTP	10	192	5	B	0	M1
HLD	11	0	2	384
TTP	11	192	2	B	0	M1
TTP	11	192	3	B	0	M1
HLD	12	0	5	384
TTP	12	192	4	B	0	M1
TTP	12	192	5	B	0	M1
HLD	13	0	1	384
TAP	13	144	3
TAP	13	192	3
TAP	13	288	5
HLD	14	0	6	384
TAP	14	144	4
TAP	14	192	4
TAP	14	288	2
HLD	15	0	1	384
TAP	15	144	3
TAP	15	192	3
TAP	15	288	5
STR	16	0	6
SUL	16	0	6	96	192	3
TAP	17	0	2
TAP	17	0	3
TAP	17	96	1
TAP	17	192	0
TAP	17	192	7
TAP	17	288	6
TAP	18	0	5
TAP	18	48	5
TAP	18	96	4
STR	18	96	6
SUL	18	96	6	96	96	2
TAP	19	0	1
TAP	19	96	2
TAP	19	96	4
TAP	19	192	6
TAP	19	288	3
TAP	19	288	5
TTP	20	0	2	B	0	M1
TTP	20	96	0	C	0	M1
TTP	20	192	6	B	0	M1
TAP	21	0	4
TAP	21	0	5
TAP	21	96	6
TAP	21	192	0
TAP	21	192	7
TAP	21	288	1
TAP	22	0	2
TAP	22	48	2
STR	22	96	1
SUR	22	96	1	96	96	5
TAP	22	96	3
TAP	23	0	6
TAP	23	96	3
TAP	23	96	5
TAP	23	192	1
TAP	23	288	2
TAP	23	288	4
TTP	24	0	5	B	0	M1
TTP	24	96	0	C	0	M1
TTP	24	192	1	B	0	M1
TAP	25	0	6
TAP	25	0	7
TAP	25	96	5
TAP	25	192	3
TAP	25	192	4
TAP	25	288	2
TAP	26	0	1
TAP	26	48	1
TAP	26	96	0
STR	26	96	2
SV_	26	96	2	96	96	5
TAP	27	0	4
TAP	27	0	6
TAP	27	96	5
TAP	27	192	1
TAP	27	192	3
TAP	27	288	2
TTP	28	0	2	B	0	M1
TTP	28	0	3	E	0	M1
TTP	28	96	0	C	0	M1
TTP	28	192	5	B	0	M1
TTP	28	192	5	E	0	M1
TAP	29	0	0
TAP	29	0	1
TAP	29	96	2
TAP	29	192	3
TAP	29	192	4
TAP	29	288	5
TAP	30	0	6
TAP	30	48	6
STR	30	96	5
SV_	30	96	5	96	96	2
TAP	30	96	7
TAP	31	0	1
TAP	31	0	3
TAP	31	96	2
TAP	31	192	4
TAP	31	192	6
TAP	31	288	5
TAP	32	0	3
TAP	32	0	4
TAP	32	96	2
TAP	32	96	5
TAP	32	192	1
TAP	32	192	6
TAP	33	0	3
STR	33	0	5
SLR	33	0	5	96	192	3
HLD	33	192	2	288
TAP	34	0	3
TAP	34	96	3
TAP	34	192	1
TAP	34	192	4
TTP	35	0	4	B	0	M1
TTP	35	96	3	B	0	M1
TTP	35	192	2	B	0	M1
TTP	35	288	1	B	0	M1
TTP	36	0	0	B	0	M1
TTP	36	96	7	B	0	M1
TTP	36	192	6	B	0	M1
STR	37	0	2
SLL	37	0	2	96	192	4
TAP	37	0	4
HLD	37	192	5	288
TAP	38	0	4
TAP	38	96	4
TAP	38	192	3
TAP	38	192	6
TAP	39	0	5
TAP	39	48	5
TAP	39	96	4
TAP	39	192	3
TAP	39	192	4
STR	39	288	2
SUL	39	288	2	96	192	3
STR	39	288	5
SUR	39	288	5	96	192	4
HLD	41	0	4	72
HLD	41	72	5	72
STR	41	144	6
SCL	41	144	6	96	48	3
TAP	41	192	6
TAP	41	336	2
HLD	42	0	2	72
HLD	42	72	1	72
STR	42	144	0
SCR	42	144	0	96	48	3
TAP	42	192	0
TAP	42	336	5
HLD	43	0	5	72
TAP	43	72	4
TAP	43	144	3
TAP	43	144	6
HLD	43	192	2	72
TAP	43	264	3
TAP	43	336	1
TAP	43	336	4
TAP	44	0	0
TAP	44	48	0
TAP	44	96	1
TAP	44	96	7
TAP	44	192	6
TAP	44	192	7
TAP	44	240	6
TAP	44	240	7
TAP	44	288	0
TAP	44	288	5
HLD	45	0	5	72
HLD	45	72	6	72
STR	45	144	7
SCL	45	144	7	96	48	4
TAP	45	192	7
TAP	45	336	3
HLD	46	0	3	72
HLD	46	72	2	72
STR	46	144	1
SCR	46	144	1	96	48	4
TAP	46	192	1
TAP	47	0	5
TAP	47	48	5
TAP	47	96	4
TAP	47	96	6
TAP	47	192	2
TAP	47	240	2
TAP	47	288	1
TAP	47	288	3
TAP	48	0	2
TAP	48	0	4
TAP	48	96	3
TAP	48	96	5
BRK	48	192	0
BRK	48	192	7
STR	49	0	1
SI_	49	0	1	96	48	3
STR	49	192	6
SI_	49	192	6	96	48	4
TAP	50	0	3
XTP	50	96	2
XTP	50	96	4
TAP	50	192	1
TAP	50	192	5
STR	51	0	2
SI_	51	0	2	96	48	0
STR	51	192	5
SI_	51	192	5	96	48	7
TAP	52	0	0
TAP	52	96	1
TAP	52	96	7
TAP	52	192	2
TAP	52	192	6
STR	53	0	1
SSL	53	0	1	96	192	5
STR	54	0	6
SCL	54	0	6	96	192	1
STR	55	0	0
SUR	55	0	0	96	240	3
TAP	56	0	4
STR	56	96	2
SI_	56	96	2	96	48	4
STR	56	96	5
SI_	56	96	5	96	48	3
HLD	57	0	4	192
HLD	57	0	5	576
HLD	58	0	2	576
THO	59	0	0	384	C	0	M1
STR	60	0	0
SSL	60	0	0	96	192	4
TTP	61	0	5	B	0	M1
TTP	61	192	2	B	0	M1
TTP	62	0	5	B	0	M1
TTP	62	96	4	B	0	M1
TTP	62	192	3	B	0	M1
TTP	62	288	2	B	0	M1
XST	63	0	1
SUR	63	0	1	96	96	5
XST	63	192	6
SUL	63	192	6	96	96	2
XTP	64	0	1
XTP	64	96	2
XTP	64	192	3
XTP	64	288	4
HLD	65	0	3	48
HLD	65	0	5	48
HLD	65	96	3	48
HLD	65	96	5	48
HLD	65	192	3	48
HLD	65	192	5	48
HLD	65	288	3	48
HLD	65	288	5	48
TAP	66	0	2
TAP	66	48	2
TAP	66	96	4
TAP	66	192	2
TAP	66	192	4
BRK	66	288	1
BRK	66	288	5
HLD	67	0	0	72
HLD	67	72	2	72
STR	67	144	3
SI_	67	144	3	96	48	0
TAP	67	192	3
TAP	67	336	7
HLD	68	0	7	72
HLD	68	72	5	72
STR	68	144	4
SI_	68	144	4	96	48	7
TAP	68	192	4
TAP	68	336	1
HLD	69	0	1	72
TAP	69	72	0
TAP	69	144	2
TAP	69	144	7
HLD	69	192	6	72
TAP	69	264	7
TAP	69	336	0
TAP	69	336	5
TAP	70	0	4
TAP	70	48	4
TAP	70	96	3
TAP	70	96	5
STR	70	192	0
SI_	70	192	0	96	48	4
STR	70	192	7
SI_	70	192	7	96	48	3
HLD	71	0	1	72
HLD	71	72	3	72
STR	71	144	4
SCL	71	144	4	96	48	1
TAP	71	192	4
TAP	71	336	6
HLD	72	0	6	72
HLD	72	72	4	72
STR	72	144	3
SCR	72	144	3	96	48	6
TAP	72	192	3
TAP	73	0	1
TAP	73	48	1
TAP	73	96	0
TAP	73	96	2
TAP	73	192	6
TAP	73	240	6
TAP	73	288	5
TAP	73	288	7
STR	74	0	2
SI_	74	0	2	96	48	7
STR	74	0	6
SI_	74	0	6	96	48	3
XTP	74	192	1
XTP	74	192	5
HLD	75	0	0	72
HLD	75	72	1	72
STR	75	144	3
SV_	75	144	3	96	48	0
TAP	75	192	3
TAP	75	336	7
HLD	76	0	7	72
HLD	76	72	6	72
STR	76	144	4
SV_	76	144	4	96	48	7
TAP	76	192	4
HLD	77	0	1	72
TAP	77	72	0
TAP	77	144	2
TAP	77	144	7
HLD	77	192	6	72
TAP	77	264	7
TAP	77	336	0
TAP	77	336	5
TAP	78	0	4
TAP	78	48	4
TAP	78	96	3
TAP	78	96	5
STR	78	192	0
SI_	78	192	0	96	48	3
STR	78	192	7
SI_	78	192	7	96	48	4
HLD	79	0	1	72
HLD	79	72	3	72
STR	79	144	4
SI_	79	144	4	96	48	1
TAP	79	192	4
TAP	79	336	6
HLD	80	0	6	72
HLD	80	72	4	72
STR	80	144	3
SI_	80	144	3	96	48	6
TAP	80	192	3
TAP	81	0	1
TAP	81	48	0
TAP	81	96	1
TAP	81	96	7
TAP	81	192	6
TAP	81	240	7
TAP	81	288	0
TAP	81	288	6
TAP	82	0	5
TAP	82	48	4
TAP	82	96	3
TAP	82	96	5
TAP	82	192	2
TAP	82	192	4
TAP	82	288	1
STR	82	288	6
SCL	82	288	6	96	240	1
THO	84	0	0	384	C	1	M1

T_REC_TAP	195
T_REC_BRK	4
T_REC_XTP	8
T_REC_HLD	50
T_REC_XHO	0
T_REC_STR	40
T_REC_BST	0
T_REC_XST	2
T_REC_TTP	32
T_REC_THO	2
T_REC_SLD	42
T_REC_ALL	375
T_NUM_TAP	277
T_NUM_BRK	4
T_NUM_HLD	52
T_NUM_SLD	42
T_NUM_ALL	375
T_JUDGE_TAP	281
T_JUDGE_HLD	180
T_JUDGE_SLD	42
T_JUDGE_ALL	503
TTM_EACHPAIRS	69
TTM_SCR_TAP	138500
TTM_SCR_BRK	10400
TTM_SCR_HLD	52000
TTM_SCR_SLD	63000
TTM_SCR_ALL	263900
TTM_SCR_S	255600
TTM_SCR_SS	263500
TTM_RAT_ACV	10015

