VERSION	0.00.00	1.03.00
FES_MODE	0
BPM_DEF	146.000	146.000	146.000	146.000
MET_DEF	4	4
RESOLUTION	384
CLK_DEF	384
COMPATIBLE_CODE	MA2

BPM	0	0	146.000
MET	0	0	4	4

XHO	9	0	2	384
HLD	10	0	3	384
HLD	11	0	4	384
TAP	12	0	5
HLD	13	0	6	384
HLD	14	0	7	384
HLD	15	0	0	384
TAP	16	0	1
TAP	17	0	2
TAP	17	96	2
TAP	17	192	3
TAP	17	288	3
TAP	18	0	4
TAP	18	96	4
TAP	18	192	3
TAP	18	192	5
TAP	19	0	6
TAP	19	96	6
TAP	19	192	7
TAP	19	288	7
TAP	20	0	0
TAP	20	96	0
TAP	20	192	0
TAP	20	192	7
TAP	21	0	6
TAP	21	96	6
TAP	21	192	5
TAP	21	288	5
TAP	22	0	4
TAP	22	96	4
TAP	22	192	3
TAP	22	192	5
TAP	23	0	2
TAP	23	96	2
TAP	23	192	1
TAP	23	288	1
TAP	24	0	0
TAP	24	96	0
TAP	24	96	7
TAP	24	192	1
TAP	24	192	6
HLD	25	0	5	192
TAP	25	192	4
TAP	25	288	4
TAP	26	0	3
TAP	26	96	3
TAP	26	192	2
TAP	26	192	4
HLD	27	0	1	192
TAP	27	192	0
TAP	27	288	0
TAP	28	0	7
TAP	28	96	7
TAP	28	192	0
TAP	28	192	7
HLD	29	0	6	192
TAP	29	192	7
TAP	29	288	7
TAP	30	0	0
TAP	30	96	0
TAP	30	192	1
TAP	30	192	7
HLD	31	0	2	192
TAP	31	192	3
TAP	31	288	3
TAP	32	0	4
TAP	32	96	3
TAP	32	96	4
TAP	32	192	2
TAP	32	192	5
TTP	33	0	2	E	0	L1
TTP	33	96	2	B	0	L1
TTP	33	192	3	B	0	L1
TTP	34	0	6	E	0	L1
TTP	34	96	5	B	0	L1
TTP	34	192	4	B	0	L1
TTP	35	0	1	B	0	L1
TTP	35	96	2	B	0	L1
TTP	35	192	3	B	0	L1
TTP	35	288	4	B	0	L1
TTP	36	0	5	B	0	L1
TTP	36	96	6	B	0	L1
TTP	36	192	0	C	0	L1
TTP	37	0	7	E	0	L1
TTP	37	96	6	B	0	L1
TTP	37	192	5	B	0	L1
TTP	38	0	1	E	0	L1
TTP	38	96	1	B	0	L1
TTP	38	192	2	B	0	L1
TTP	39	0	6	B	0	L1
TTP	39	96	7	B	0	L1
TTP	39	192	0	B	0	L1
TTP	39	288	1	B	0	L1
TTP	40	0	0	C	0	L1
TTP	40	0	2	B	0	L1
TTP	40	0	5	B	0	L1
BRK	41	0	1
TAP	41	96	1
TAP	41	192	0
TAP	41	192	1
TAP	41	288	0
TAP	41	288	1
TAP	42	0	6
TAP	42	96	6
TAP	42	192	6
TAP	42	192	7
TAP	42	288	6
TAP	42	288	7
TAP	43	0	5
TAP	43	96	5
TAP	43	192	4
TAP	43	288	4
TAP	44	0	3
TAP	44	96	3
TAP	44	192	2
TAP	44	192	4
TAP	45	0	5
TAP	45	96	5
TAP	45	192	4
TAP	45	192	5
TAP	45	288	4
TAP	45	288	5
TAP	46	0	2
TAP	46	96	2
TAP	46	192	2
TAP	46	192	3
TAP	46	288	2
TAP	46	288	3
TAP	47	0	1
TAP	47	96	1
TAP	47	192	0
TAP	47	288	0
TAP	48	0	0
TAP	48	0	7
TAP	48	96	0
TAP	48	96	7
XTP	48	192	1
XTP	48	192	6
STR	49	0	7
SI_	49	0	7	96	144	3
STR	50	0	2
SI_	50	0	2	96	144	7
STR	51	0	6
SI_	51	0	6	96	144	3
TAP	52	0	2
TAP	52	96	2
TAP	52	192	2
TAP	52	192	3
STR	53	0	1
SI_	53	0	1	96	144	5
STR	54	0	6
SI_	54	0	6	96	144	2
STR	55	0	0
SI_	55	0	0	96	144	3
TAP	56	0	4
TAP	56	96	4
XTP	56	192	3
XTP	56	192	4
HLD	57	0	5	384
HLD	58	0	4	384
HLD	59	0	3	384
TAP	60	0	2
STR	61	0	1
SUR	61	0	1	96	192	5
STR	62	0	6
SUL	62	0	6	96	192	2
TAP	63	0	1
TAP	63	192	0
TAP	64	0	7
TAP	64	96	7
TAP	64	192	6
TAP	64	288	6
HLD	65	0	4	96
HLD	65	0	5	96
HLD	65	192	2	96
HLD	65	192	3	96
TAP	66	0	3
TAP	66	0	4
TAP	66	96	3
TAP	66	96	4
TAP	66	192	3
TAP	66	192	4
XTP	66	288	3
XTP	66	288	4
BRK	67	0	5
TAP	67	96	5
TAP	67	192	4
TAP	67	192	5
TAP	67	288	4
TAP	67	288	5
TAP	68	0	2
TAP	68	96	2
TAP	68	192	2
TAP	68	192	3
TAP	68	288	2
TAP	68	288	3
TAP	69	0	1
TAP	69	96	1
TAP	69	192	0
TAP	69	288	0
TAP	70	0	7
TAP	70	96	7
TAP	70	192	0
TAP	70	192	6
TAP	71	0	1
TAP	71	96	1
TAP	71	192	0
TAP	71	192	1
TAP	71	288	0
TAP	71	288	1
TAP	72	0	6
TAP	72	96	6
TAP	72	192	6
TAP	72	192	7
TAP	72	288	6
TAP	72	288	7
TAP	73	0	5
TAP	73	96	5
TAP	73	192	4
TAP	73	288	4
TAP	74	0	3
TAP	74	0	4
TAP	74	96	3
TAP	74	96	4
XTP	74	192	2
XTP	74	192	5
BRK	75	0	1
TAP	75	96	0
TAP	75	96	1
TAP	75	192	1
TAP	75	288	0
TAP	75	288	1
TAP	76	0	6
TAP	76	96	6
TAP	76	96	7
TAP	76	192	6
TAP	76	288	6
TAP	76	288	7
TAP	77	0	5
TAP	77	96	5
TAP	77	192	4
TAP	77	288	4
TAP	78	0	3
TAP	78	96	3
TAP	78	192	2
TAP	78	192	4
TAP	79	0	5
TAP	79	96	4
TAP	79	96	5
TAP	79	192	5
TAP	79	288	4
TAP	79	288	5
TAP	80	0	2
TAP	80	96	2
TAP	80	96	3
TAP	80	192	2
TAP	80	288	2
TAP	80	288	3
TAP	81	0	1
TAP	81	96	0
TAP	81	192	7
TAP	81	288	6
TAP	82	0	5
TAP	82	96	4
TAP	82	192	3
TAP	82	288	2
STR	83	0	3
SCL	83	0	3	96	192	0
STR	83	0	4
SCR	83	0	4	96	192	7
STR	84	0	0
SCR	84	0	0	96	192	3
STR	84	0	7
SCL	84	0	7	96	192	4
TTP	85	0	0	C	1	L1

T_REC_TAP	196
T_REC_BRK	3
T_REC_XTP	8
T_REC_HLD	16
T_REC_XHO	1
T_REC_STR	12
T_REC_BST	0
T_REC_XST	0
T_REC_TTP	27
T_REC_THO	0
T_REC_SLD	12
T_REC_ALL	275
T_NUM_TAP	243
T_NUM_BRK	3
T_NUM_HLD	17
T_NUM_SLD	12
T_NUM_ALL	275
T_JUDGE_TAP	246
T_JUDGE_HLD	96
T_JUDGE_SLD	12
T_JUDGE_ALL	354
TTM_EACHPAIRS	53
TTM_SCR_TAP	121500
TTM_SCR_BRK	7800
TTM_SCR_HLD	17000
TTM_SCR_SLD	18000
TTM_SCR_ALL	164300
TTM_SCR_S	159100
TTM_SCR_SS	164000
TTM_RAT_ACV	10018

