VERSION	0.00.00	1.03.00
FES_MODE	0
BPM_DEF	146.000	146.000	146.000	146.000
MET_DEF	4	4
RESOLUTION	384
CLK_DEF	384
COMPATIBLE_CODE	MA2

BPM	0	0	146.000
MET	0	0	4	4

TAP	9	0	0
TAP	10	0	0
TAP	11	0	0
TAP	13	0	7
TAP	14	0	7
TAP	15	0	7
TAP	17	0	0
TAP	17	192	0
TAP	18	0	0
TAP	19	0	1
TAP	19	192	1
TAP	20	0	1
TAP	21	0	2
TAP	21	192	2
TAP	22	0	2
TAP	23	0	3
TAP	23	192	3
TAP	24	0	3
TAP	24	0	4
TAP	25	0	4
TAP	25	192	4
TAP	26	0	4
TAP	27	0	5
TAP	27	192	5
TAP	28	0	5
TAP	29	0	6
TAP	29	192	6
TAP	30	0	6
TAP	31	0	7
TAP	31	192	7
XTP	32	0	0
XTP	32	0	7
STR	33	0	0
SI_	33	0	0	96	288	3
STR	35	0	7
SI_	35	0	7	96	288	4
STR	37	0	0
SI_	37	0	0	96	288	4
TAP	39	0	7
TAP	40	0	7
TAP	41	0	0
TAP	41	192	0
TAP	42	0	1
TAP	42	192	1
TAP	43	0	2
TAP	43	192	2
TAP	44	0	3
TAP	44	0	4
TAP	44	192	3
TAP	44	192	4
TAP	45	0	4
TAP	45	192	4
TAP	46	0	5
TAP	46	192	5
TAP	47	0	6
TAP	47	192	6
XTP	48	0	0
XTP	48	0	7
HLD	49	0	6	384
HLD	49	0	7	384
HLD	51	0	4	384
HLD	51	0	5	384
HLD	53	0	2	384
HLD	53	0	3	384
HLD	55	0	0	384
HLD	55	0	1	384
TTP	57	0	0	B	0	L1
TTP	58	0	7	B	0	L1
TTP	59	0	1	B	0	L1
TTP	60	0	6	B	0	L1
TTP	61	0	2	B	0	L1
TTP	62	0	5	B	0	L1
TTP	63	0	3	B	0	L1
TTP	64	0	4	B	0	L1
THO	65	0	0	384	C	0	L1
BRK	67	0	7
TAP	67	96	7
TAP	67	192	7
TAP	68	0	6
TAP	68	192	6
TAP	69	0	5
TAP	69	96	5
TAP	69	192	5
TAP	70	0	3
TAP	70	0	4
TAP	70	192	3
TAP	70	192	4
TAP	71	0	3
TAP	71	96	3
TAP	71	192	3
TAP	72	0	2
TAP	72	192	2
TAP	73	0	1
TAP	73	96	1
TAP	73	192	1
TAP	74	0	0
TAP	74	0	7
TAP	74	192	0
TAP	74	192	7
TAP	75	0	0
TAP	75	96	0
TAP	75	192	0
TAP	76	0	1
TAP	76	192	1
TAP	77	0	2
TAP	77	96	2
TAP	77	192	2
TAP	78	0	3
TAP	78	0	4
TAP	78	192	3
TAP	78	192	4
TAP	79	0	4
TAP	79	96	4
TAP	79	192	4
TAP	80	0	5
TAP	80	96	5
TAP	80	192	5
TAP	81	0	6
TAP	81	96	6
TAP	81	192	6
TAP	82	0	7
TAP	82	96	7
TAP	82	192	0
TAP	82	192	7
STR	83	0	0
SI_	83	0	0	96	288	3
STR	83	0	7
SI_	83	0	7	96	288	4
TTP	85	0	0	C	1	L1

T_REC_TAP	96
T_REC_BRK	1
T_REC_XTP	4
T_REC_HLD	8
T_REC_XHO	0
T_REC_STR	5
T_REC_BST	0
T_REC_XST	0
T_REC_TTP	9
T_REC_THO	1
T_REC_SLD	5
T_REC_ALL	129
T_NUM_TAP	114
T_NUM_BRK	1
T_NUM_HLD	9
T_NUM_SLD	5
T_NUM_ALL	129
T_JUDGE_TAP	115
T_JUDGE_HLD	72
T_JUDGE_SLD	5
T_JUDGE_ALL	192
TTM_EACHPAIRS	17
TTM_SCR_TAP	57000
TTM_SCR_BRK	2600
TTM_SCR_HLD	9000
TTM_SCR_SLD	7500
TTM_SCR_ALL	76100
TTM_SCR_S	73750
TTM_SCR_SS	76000
TTM_RAT_ACV	10013

