VERSION	0.00.00	1.03.00
FES_MODE	0
BPM_DEF	134.000	134.000	134.000	134.000
MET_DEF	4	4
RESOLUTION	384
CLK_DEF	384
COMPATIBLE_CODE	MA2

BPM	0	0	134.000
MET	0	0	4	4

TAP	1	0	5
TAP	1	48	4
TAP	1	96	3
HLD	1	144	2	624
TTP	1	288	4	E	0	M1
TTP	2	96	4	E	0	M1
TTP	2	288	4	E	0	M1
HLD	3	0	5	288
XTP	3	96	4
XTP	3	192	4
XTP	3	288	4
TAP	4	0	3
TAP	4	0	5
TAP	4	48	2
TAP	4	48	6
TAP	4	96	1
TAP	4	96	5
TAP	4	192	2
TAP	4	192	6
TAP	4	240	1
TAP	4	240	5
TAP	4	288	2
TAP	4	288	6
TAP	5	0	5
TAP	5	48	5
TAP	5	96	3
TAP	5	120	4
TAP	5	168	1
HLD	5	216	1	48
TAP	5	264	3
TAP	5	288	1
TAP	5	336	1
TAP	5	336	3
HLD	6	0	2	48
HLD	6	0	4	48
TAP	6	96	5
TAP	6	120	4
TAP	6	168	4
TAP	6	192	6
TAP	6	240	6
TAP	6	288	3
TAP	6	288	5
TAP	7	0	5
TAP	7	48	5
TAP	7	96	3
TAP	7	120	4
TAP	7	168	1
HLD	7	216	1	48
TAP	7	264	3
TAP	7	288	1
TAP	7	336	1
TAP	7	336	3
HLD	8	0	2	48
HLD	8	0	4	48
HLD	8	96	3	48
HLD	8	96	5	48
XTP	8	192	5
XTP	8	208	4
XTP	8	224	5
XTP	8	240	4
XTP	8	256	5
XTP	8	272	4
XTP	8	288	5
XTP	8	336	3
XTP	8	336	6
TAP	9	48	6
STR	9	96	4
SXL	9	96	4	96	120	3
TAP	9	144	5
HLD	9	192	6	96
TAP	9	336	6
TAP	10	0	2
TAP	10	48	2
STR	10	96	3
SI_	10	96	3	96	48	1
TAP	10	144	4
STR	10	192	5
SI_	10	192	5	96	48	3
TAP	10	288	2
TAP	11	0	1
TAP	11	48	1
STR	11	96	3
SXR	11	96	3	96	120	4
TAP	11	144	2
HLD	11	192	1	96
TAP	11	336	1
TAP	12	0	5
TAP	12	48	5
STR	12	96	4
SI_	12	96	4	96	48	6
TAP	12	144	3
STR	12	192	2
SI_	12	192	2	96	48	4
TAP	12	288	5
TAP	13	0	6
TAP	13	48	6
STR	13	96	4
SXL	13	96	4	96	120	3
TAP	13	144	5
HLD	13	192	6	96
TAP	13	336	6
TAP	14	0	2
TAP	14	48	2
STR	14	96	3
SI_	14	96	3	96	48	1
TAP	14	144	4
STR	14	192	5
SI_	14	192	5	96	48	3
TAP	14	288	2
HLD	15	0	1	48
HLD	15	0	4	48
HLD	15	96	3	48
HLD	15	96	6	48
STR	15	192	1
SUR	15	192	1	96	48	5
TAP	15	192	5
TAP	15	288	6
STR	15	336	6
SUL	15	336	6	96	48	2
TAP	16	48	1
HLD	16	96	1	96
TTP	16	192	0	C	0	M1
TTP	16	288	0	B	0	M1
TTP	16	288	0	E	0	M1
TTP	16	288	7	B	0	M1
TAP	17	0	2
TAP	17	48	2
TAP	17	96	4
TAP	17	120	3
TAP	17	168	6
HLD	17	216	6	48
TAP	17	264	4
TAP	17	288	6
TAP	17	336	4
TAP	17	336	6
HLD	18	0	3	48
HLD	18	0	5	48
TAP	18	96	2
TAP	18	120	3
TAP	18	168	3
TAP	18	192	1
TAP	18	240	1
TAP	18	288	2
TAP	18	288	4
TAP	19	0	2
TAP	19	48	2
TAP	19	96	4
TAP	19	120	3
TAP	19	168	6
HLD	19	216	6	48
TAP	19	264	4
TAP	19	288	6
TAP	19	336	4
TAP	19	336	6
HLD	20	0	3	48
HLD	20	0	5	48
HLD	20	96	2	48
HLD	20	96	4	48
XTP	20	192	2
XTP	20	208	3
XTP	20	224	2
XTP	20	240	3
XTP	20	256	2
XTP	20	272	3
XTP	20	288	2
XTP	20	336	1
XTP	20	336	5
TAP	21	48	3
STR	21	96	6
SXL	21	96	6	96	120	5
TAP	21	144	4
HLD	21	192	4	96
TAP	21	336	4
TAP	22	0	3
TAP	22	48	3
STR	22	96	4
SI_	22	96	4	96	48	2
TAP	22	144	5
STR	22	192	6
SI_	22	192	6	96	48	4
TAP	22	288	2
TAP	23	0	3
TAP	23	48	4
STR	23	96	1
SXR	23	96	1	96	120	2
TAP	23	144	3
HLD	23	192	3	96
TAP	23	336	3
TAP	24	0	4
TAP	24	48	4
STR	24	96	3
SI_	24	96	3	96	48	5
TAP	24	144	2
STR	24	192	1
SI_	24	192	1	96	48	3
TAP	24	288	5
TTP	25	48	5	B	0	M1
TTP	25	48	6	B	0	M1
TTP	25	48	6	E	0	M1
TTP	25	96	0	C	0	M1
TTP	25	144	1	B	0	M1
TTP	25	144	2	B	0	M1
TTP	25	144	2	E	0	M1
XHO	25	192	7	144
TAP	25	288	0
HLD	25	336	0	96
TAP	26	48	3
STR	26	96	4
SI_	26	96	4	96	48	2
TAP	26	144	5
STR	26	192	6
SI_	26	192	6	96	48	4
TAP	26	288	2
HLD	27	0	1	48
HLD	27	0	5	48
HLD	27	96	2	48
HLD	27	96	6	48
TAP	27	192	1
STR	27	192	5
SI_	27	192	5	96	48	3
TAP	27	288	2
TAP	28	0	1
TAP	28	0	3
TAP	28	48	2
TAP	28	96	4
TAP	28	96	6
TAP	28	144	5
TAP	28	192	3
TAP	28	192	4
XTP	28	240	3
XTP	28	256	4
XTP	28	272	3
XTP	28	288	4
TAP	28	336	1
TAP	28	336	6
BRK	29	0	2
BST	29	0	7
SCL	29	0	7	96	48	4
TAP	29	96	1
STR	29	96	7
SCR	29	96	7	96	48	2
XTP	29	144	0
XTP	29	192	5
STR	29	192	7
SCL	29	192	7	96	48	4
TAP	29	288	2
TAP	29	288	7
TAP	29	336	1
TAP	30	0	0
TAP	30	0	4
TAP	30	48	2
TAP	30	72	3
TAP	30	96	1
TAP	30	144	7
TAP	30	192	3
TAP	30	192	6
TAP	30	240	5
STR	30	288	2
SXR	30	288	2	96	96	3
STR	30	288	4
SXL	30	288	4	96	96	3
TAP	30	336	1
BRK	31	0	2
BRK	31	0	4
TAP	31	144	1
TAP	31	144	5
TAP	31	192	1
TAP	31	192	5
TAP	31	288	7
TAP	31	312	7
TAP	31	336	3
TAP	32	0	4
TAP	32	0	6
TAP	32	48	5
TAP	32	96	1
TAP	32	96	3
TAP	32	144	2
TAP	32	192	3
TAP	32	192	5
TAP	32	240	2
TAP	32	240	6
TAP	32	288	1
TAP	32	288	7
XTP	33	0	1
XTP	33	0	6
XTP	33	12	2
XTP	33	12	5
XTP	33	24	3
XTP	33	24	4
XTP	33	96	1
XTP	33	96	6
XTP	33	108	2
XTP	33	108	5
XTP	33	120	3
XTP	33	120	4
XTP	33	192	1
XTP	33	192	6
XTP	33	204	2
XTP	33	204	5
XTP	33	216	3
XTP	33	216	4
XTP	33	288	0
XTP	33	288	7
TAP	34	0	2
TAP	34	0	3
TAP	34	48	1
TAP	34	96	0
TAP	34	96	7
TAP	34	144	6
TAP	34	192	4
HLD	34	192	5	144
STR	34	288	7
SCR	34	288	7	96	168	6
TAP	34	336	1
HLD	35	0	3	192
TAP	35	288	0
TAP	35	288	7
TAP	35	336	0
TAP	35	336	7
TAP	36	0	1
TAP	36	0	5
TTP	36	48	2	E	0	M1
TTP	36	48	4	B	0	M1
TAP	36	96	2
TAP	36	96	6
TTP	36	144	3	B	0	M1
TTP	36	144	6	E	0	M1
TAP	36	192	1
TAP	36	192	5
TTP	36	240	2	E	0	M1
TTP	36	240	4	E	0	M1
XTP	36	288	0
XST	36	288	7
SCL	36	288	7	96	48	4
BRK	37	0	1
BST	37	0	7
SCR	37	0	7	96	48	2
TAP	37	96	5
STR	37	96	7
SCL	37	96	7	96	48	4
XTP	37	144	6
XTP	37	192	1
STR	37	192	7
SCR	37	192	7	96	48	2
TAP	37	288	5
TAP	37	288	7
XTP	37	336	6
XTP	38	0	2
XTP	38	0	7
TAP	38	48	5
TAP	38	72	4
TAP	38	96	6
TAP	38	144	0
TAP	38	192	1
TAP	38	192	5
TAP	38	240	6
STR	38	288	1
SXL	38	288	1	96	96	0
STR	38	288	7
SXR	38	288	7	96	96	0
TAP	38	336	2
TAP	39	0	1
TAP	39	0	7
TAP	39	144	2
TAP	39	144	6
TAP	39	192	2
TAP	39	192	6
TAP	39	288	0
TAP	39	288	5
TAP	39	336	1
TAP	39	336	4
TAP	40	0	2
TAP	40	0	3
TAP	40	48	0
TAP	40	96	4
TAP	40	96	5
TAP	40	144	7
TAP	40	192	2
TAP	40	192	3
TAP	40	240	0
TAP	40	288	1
TAP	40	288	5
TTP	41	0	2	B	0	M1
TTP	41	0	3	B	0	M1
TTP	41	0	3	E	0	M1
BRK	41	0	7
BRK	41	96	0
TTP	41	96	4	B	0	M1
TTP	41	96	5	B	0	M1
TTP	41	96	5	E	0	M1
TAP	41	192	6
TAP	41	216	7
TAP	41	264	1
TAP	41	288	0
TAP	41	336	2
TAP	42	0	3
TAP	42	0	6
TAP	42	48	5
TAP	42	96	1
TAP	42	96	4
TAP	42	144	2
BRK	42	192	3
BRK	42	192	7
STR	42	288	6
SCL	42	288	6	96	192	7
TAP	42	336	6
XHO	43	0	4	192
TAP	43	288	6
TAP	43	288	7
TAP	43	336	0
TAP	43	336	5
TAP	44	48	2
TAP	44	48	7
TAP	44	96	6
TAP	44	144	5
STR	44	192	3
SF_	44	192	3	96	48	7
TAP	44	192	4
TAP	44	288	3
XHO	45	0	1	1440
XHO	45	0	5	1440
TTP	49	0	0	C	0	M1
TTP	49	96	0	C	0	M1
TTP	49	192	0	C	0	M1
XTP	49	288	0
XTP	49	288	7
HLD	50	0	2	96
HLD	50	96	3	96
HLD	50	192	4	96
STR	50	288	5
SXL	50	288	5	96	240	2
TAP	52	0	2
TAP	52	96	1
XST	52	192	0
SI_	52	192	0	96	48	4
XST	52	192	7
SI_	52	192	7	96	48	3
XTP	52	288	0
XTP	52	288	7
TAP	53	0	2
HLD	53	0	6	768
TAP	53	96	4
TAP	53	192	4
TAP	53	288	4
TTP	54	0	4	B	0	M1
TTP	54	96	2	B	0	M1
TTP	54	192	6	B	0	M1
TTP	54	288	0	B	0	M1
XHO	55	0	2	576
TAP	55	96	3
TAP	55	192	3
TAP	55	288	3
TTP	56	0	4	E	0	M1
TTP	56	96	0	C	0	M1
TTP	56	192	0	E	0	M1
XTP	56	288	0
XTP	56	288	7
HLD	57	0	3	48
HLD	57	0	4	48
HLD	57	96	2	48
HLD	57	96	4	48
HLD	57	192	1	48
HLD	57	192	4	48
HLD	57	288	0	48
HLD	57	288	4	48
HLD	58	0	3	48
HLD	58	0	4	48
HLD	58	96	3	48
HLD	58	96	5	48
HLD	58	192	3	48
HLD	58	192	6	48
HLD	58	288	3	48
HLD	58	288	7	48
TAP	59	0	3
TAP	59	0	4
TAP	59	48	2
TAP	59	48	5
TAP	59	96	2
TAP	59	96	5
TAP	59	144	2
TAP	59	144	5
TAP	59	192	2
TAP	59	192	5
TAP	59	240	2
TAP	59	240	5
TAP	59	288	2
TAP	59	288	5
XTP	59	336	0
XTP	59	336	7
TAP	60	48	1
TAP	60	48	6
TAP	60	96	1
TAP	60	96	6
TAP	60	144	2
TAP	60	144	5
XTP	60	192	3
XTP	60	192	4
XST	60	288	0
SUL	60	288	0	96	48	4
XST	60	288	7
SCL	60	288	7	96	48	4
BST	61	0	0
SCR	61	0	0	96	48	3
BST	61	0	7
SUR	61	0	7	96	48	3
STR	61	96	0
SUL	61	96	0	96	48	4
STR	61	96	7
SCL	61	96	7	96	48	4
STR	61	192	0
SCR	61	192	0	96	48	3
STR	61	192	7
SUR	61	192	7	96	48	3
TAP	61	288	0
TAP	61	288	7
TAP	62	0	4
TAP	62	0	5
TAP	62	48	5
TAP	62	72	4
TAP	62	96	6
TAP	62	144	0
TAP	62	192	1
TAP	62	192	4
TAP	62	240	2
STR	62	288	3
SXR	62	288	3	96	96	4
STR	62	288	5
SXL	62	288	5	96	96	4
TAP	62	336	6
BRK	63	0	3
BRK	63	0	5
TAP	63	144	2
TAP	63	144	6
TAP	63	192	2
TAP	63	192	6
TAP	63	288	7
TAP	63	336	0
TAP	64	0	1
TAP	64	0	4
TAP	64	48	2
TAP	64	96	3
TAP	64	96	6
TAP	64	144	5
TAP	64	192	0
TAP	64	192	4
TAP	64	240	1
TAP	64	240	5
TAP	64	288	2
TAP	64	288	6
XTP	65	0	0
XTP	65	0	4
XTP	65	12	1
XTP	65	12	5
XTP	65	24	2
XTP	65	24	6
XTP	65	96	0
XTP	65	96	4
XTP	65	108	1
XTP	65	108	5
XTP	65	120	2
XTP	65	120	6
XTP	65	192	0
XTP	65	192	4
XTP	65	204	1
XTP	65	204	5
XTP	65	216	2
XTP	65	216	6
XTP	65	288	0
XTP	65	288	4
TAP	66	0	4
TAP	66	0	5
TAP	66	48	6
TAP	66	96	0
TAP	66	96	7
TAP	66	144	1
HLD	66	192	2	144
TAP	66	192	3
STR	66	288	0
SCL	66	288	0	96	168	1
TAP	66	336	6
HLD	67	0	4	192
TAP	67	288	0
TAP	67	288	7
TAP	67	336	0
TAP	67	336	7
TAP	68	0	1
TAP	68	0	5
TTP	68	48	2	E	0	M1
TTP	68	48	4	B	0	M1
TAP	68	96	2
TAP	68	96	6
TTP	68	144	3	B	0	M1
TTP	68	144	6	E	0	M1
TAP	68	192	1
TAP	68	192	5
TTP	68	240	2	E	0	M1
TTP	68	240	4	E	0	M1
STR	68	288	0
SCR	68	288	0	96	48	3
STR	68	288	7
SUR	68	288	7	96	48	3
BST	69	0	0
SUL	69	0	0	96	48	4
BST	69	0	7
SCL	69	0	7	96	48	4
STR	69	96	0
SCR	69	96	0	96	48	3
STR	69	96	7
SUR	69	96	7	96	48	3
STR	69	192	0
SUL	69	192	0	96	48	4
STR	69	192	7
SCL	69	192	7	96	48	4
TAP	69	288	0
TAP	69	288	7
TAP	70	0	2
TAP	70	0	3
TAP	70	48	2
TAP	70	72	3
TAP	70	96	1
TAP	70	144	7
TAP	70	192	2
TAP	70	192	6
TAP	70	240	1
STR	70	288	0
SXL	70	288	0	96	96	7
STR	70	288	6
SXR	70	288	6	96	96	7
TAP	70	336	5
TAP	71	0	0
TAP	71	0	6
TAP	71	144	1
TAP	71	144	5
TAP	71	192	1
TAP	71	192	5
TAP	71	288	2
TAP	71	288	7
TAP	71	336	3
TAP	71	336	6
TAP	72	0	4
TAP	72	0	5
TAP	72	48	7
TAP	72	96	2
TAP	72	96	3
TAP	72	144	0
TAP	72	192	4
TAP	72	192	5
TAP	72	240	7
TAP	72	288	2
TAP	72	288	6
BRK	73	0	0
TTP	73	0	4	B	0	M1
TTP	73	0	5	B	0	M1
TTP	73	0	5	E	0	M1
TTP	73	96	2	B	0	M1
TTP	73	96	3	B	0	M1
TTP	73	96	3	E	0	M1
BRK	73	96	7
TAP	73	192	1
TAP	73	216	0
TAP	73	264	6
TAP	73	288	7
TAP	73	336	5
TAP	74	0	1
TAP	74	0	4
TAP	74	48	2
TAP	74	96	3
TAP	74	96	6
TAP	74	144	5
BRK	74	192	0
BRK	74	192	4
STR	74	288	3
SCL	74	288	3	96	192	4
TAP	74	288	4
THO	75	0	0	192	C	0	M1
XTP	75	288	6
XTP	75	288	7
XTP	75	336	0
XTP	75	336	5
TAP	76	48	0
TAP	76	48	1
TAP	76	96	2
TAP	76	96	7
TAP	76	144	6
STR	76	192	2
SCL	76	192	2	96	48	0
STR	76	192	5
SCR	76	192	5	96	48	7
STR	76	288	2
SXR	76	288	2	96	168	4
STR	76	288	5
SXL	76	288	5	96	168	3
XTP	77	0	2
XTP	77	0	5
TAP	77	288	4
TAP	77	288	5
XTP	77	336	3
XTP	77	336	6
TAP	78	48	2
TAP	78	48	3
STR	78	96	1
SI_	78	96	1	96	48	5
TAP	78	96	4
TAP	78	144	1
XTP	78	192	1
STR	78	192	6
SI_	78	192	6	96	48	2
STR	78	288	4
SXL	78	288	4	96	96	4
SXR	78	288	4	96	96	4
XTP	78	288	6
XST	79	0	4
SCL	79	0	4	96	192	5
HLD	80	0	3	192
XTP	80	96	4
HLD	80	192	5	144
XTP	80	288	4
TAP	80	336	4
TAP	80	360	5
HLD	81	0	3	48
XHO	81	96	2	48
XHO	81	96	4	48
HLD	81	192	3	48
HLD	81	192	5	48
XHO	81	288	2	48
XHO	81	288	4	48
TAP	82	0	1
TAP	82	0	5
TAP	82	48	2
TAP	82	48	6
TAP	82	96	1
TAP	82	96	5
TAP	82	192	2
TAP	82	192	6
TAP	82	240	1
TAP	82	240	5
BRK	82	288	3
BRK	82	288	7

T_REC_TAP	372
T_REC_BRK	16
T_REC_XTP	95
T_REC_HLD	62
T_REC_XHO	9
T_REC_STR	55
T_REC_BST	6
T_REC_XST	6
T_REC_TTP	48
T_REC_THO	1
T_REC_SLD	68
T_REC_ALL	738
T_NUM_TAP	576
T_NUM_BRK	22
T_NUM_HLD	72
T_NUM_SLD	68
T_NUM_ALL	738
T_JUDGE_TAP	598
T_JUDGE_HLD	206
T_JUDGE_SLD	68
T_JUDGE_ALL	872
TTM_EACHPAIRS	190
TTM_SCR_TAP	288000
TTM_SCR_BRK	57200
TTM_SCR_HLD	72000
TTM_SCR_SLD	102000
TTM_SCR_ALL	519200
TTM_SCR_S	501500
TTM_SCR_SS	517000
TTM_RAT_ACV	10042

