VERSION	0.00.00	1.03.00
FES_MODE	0
BPM_DEF	134.000	134.000	134.000	134.000
MET_DEF	4	4
RESOLUTION	384
CLK_DEF	384
COMPATIBLE_CODE	MA2

BPM	0	0	134.000
MET	0	0	4	4

HLD	1	0	2	768
TAP	1	96	3
TAP	1	288	3
TAP	2	96	3
TAP	2	288	4
HLD	3	0	5	288
TAP	3	96	4
TAP	3	192	4
TAP	3	288	4
TAP	4	0	4
TAP	4	0	5
TAP	4	96	6
TAP	4	96	7
XTP	4	192	0
XTP	4	192	5
XTP	4	240	0
XTP	4	240	5
TAP	5	0	2
TAP	5	48	2
TAP	5	96	1
TAP	5	96	3
TAP	5	192	0
TAP	5	288	1
TAP	5	288	3
TTP	6	0	1	E	0	M1
TTP	6	96	2	E	0	M1
TTP	6	192	3	E	0	M1
TAP	6	288	3
TAP	6	288	4
TAP	7	0	5
TAP	7	48	5
TAP	7	96	4
TAP	7	96	6
TAP	7	192	7
TAP	7	288	4
TAP	7	288	6
HLD	8	0	3	48
HLD	8	0	5	48
HLD	8	96	2	48
HLD	8	96	4	48
TAP	8	192	1
TAP	8	192	5
XTP	8	288	2
XTP	8	288	5
XTP	8	336	2
XHO	8	336	5	432
TAP	9	96	3
TAP	9	288	4
STR	10	0	4
SI_	10	0	4	96	48	2
STR	10	192	6
SI_	10	192	6	96	48	4
XHO	11	0	2	384
TAP	11	96	4
TAP	11	288	3
STR	12	0	3
SI_	12	0	3	96	48	5
STR	12	192	1
SI_	12	192	1	96	48	3
TAP	12	288	4
XHO	13	0	5	384
TAP	13	96	3
TAP	13	288	4
STR	14	0	4
SI_	14	0	4	96	48	2
TAP	14	192	6
TAP	14	288	5
XTP	15	0	3
XTP	15	0	4
XTP	15	96	2
XTP	15	96	5
XTP	15	192	1
XTP	15	192	6
TAP	15	288	7
HLD	15	336	7	96
TAP	16	48	0
HLD	16	96	0	96
TAP	16	192	7
TTP	16	288	0	B	0	M1
TTP	16	288	0	E	0	M1
TTP	16	288	7	B	0	M1
TAP	17	0	2
TAP	17	48	3
HLD	17	96	1	72
TAP	17	96	4
HLD	17	168	2	72
TAP	17	240	3
TAP	17	288	3
TTP	18	0	4	B	0	M1
TTP	18	0	5	B	0	M1
TTP	18	96	6	B	0	M1
TTP	18	96	7	B	0	M1
TTP	18	192	2	B	0	M1
TTP	18	192	3	B	0	M1
TTP	18	288	0	B	0	M1
TTP	18	288	1	B	0	M1
XTP	19	0	5
XTP	19	48	4
TAP	19	96	3
HLD	19	96	6	72
HLD	19	168	5	72
TAP	19	240	4
TAP	19	288	4
TTP	20	0	0	C	0	M1
TTP	20	0	2	E	0	M1
TTP	20	0	6	E	0	M1
TTP	20	96	3	E	0	M1
TTP	20	96	4	E	0	M1
TTP	20	96	5	E	0	M1
TTP	20	192	0	E	0	M1
TTP	20	192	1	E	0	M1
TTP	20	192	7	E	0	M1
XTP	20	336	3
XTP	20	336	4
TAP	21	48	3
TAP	21	96	2
TAP	21	96	4
TAP	21	192	5
TAP	21	240	4
TAP	21	288	3
TAP	21	288	5
STR	22	0	2
SCR	22	0	2	96	72	5
STR	22	192	6
SCR	22	192	6	96	72	1
TAP	23	0	2
TAP	23	48	3
TAP	23	96	2
TAP	23	96	4
TAP	23	192	5
TAP	23	240	4
TAP	23	288	3
TAP	23	288	5
STR	24	0	4
SCR	24	0	4	96	72	7
STR	24	192	0
SCR	24	192	0	96	72	3
TTP	25	48	6	E	0	M1
TTP	25	96	0	C	0	M1
TTP	25	144	2	E	0	M1
HLD	25	192	7	144
TAP	25	288	0
TAP	25	336	0
TAP	26	48	1
TAP	26	48	4
TAP	26	96	1
TAP	26	96	4
TAP	26	192	3
TAP	26	192	6
TAP	26	288	0
TAP	26	288	7
HLD	27	0	5	96
HLD	27	96	4	96
STR	27	192	3
SI_	27	192	3	96	48	1
SI_	27	192	3	96	48	5
TAP	28	0	6
TAP	28	48	6
TAP	28	96	0
TAP	28	192	1
TAP	28	192	7
TAP	28	288	2
TAP	28	288	6
BST	29	0	4
SI_	29	0	4	96	48	0
HLD	29	0	5	96
HLD	29	192	2	96
STR	29	192	3
SI_	29	192	3	96	48	7
TAP	30	0	0
TAP	30	48	0
TAP	30	96	6
TAP	30	192	1
TAP	30	192	5
TAP	30	288	2
TAP	30	288	4
BST	31	0	3
SXL	31	0	3	96	120	3
SXR	31	0	3	96	120	3
TAP	31	288	1
TAP	31	288	5
TAP	32	0	2
HLD	32	0	6	96
HLD	32	96	0	144
TAP	32	192	7
TAP	32	240	7
TAP	32	288	2
TAP	32	288	6
XST	33	0	1
SCR	33	0	1	96	48	4
XST	33	96	0
SV_	33	96	0	96	48	5
XST	33	192	1
SCR	33	192	1	96	48	4
TAP	33	288	7
TAP	34	0	6
TAP	34	48	6
HLD	34	96	4	96
TAP	34	96	5
HLD	34	192	2	96
STR	34	288	0
SCR	34	288	0	96	192	6
TTP	35	0	0	C	1	M1
TAP	35	288	0
TAP	35	288	7
HLD	36	0	3	48
HLD	36	0	6	48
HLD	36	96	1	48
HLD	36	96	4	48
TAP	36	192	0
TAP	36	192	7
TAP	36	240	0
TAP	36	240	7
TAP	36	288	1
TAP	36	288	6
HLD	37	0	2	96
BST	37	0	3
SUR	37	0	3	96	48	7
STR	37	192	4
SUL	37	192	4	96	48	0
HLD	37	192	5	96
TAP	38	0	7
TAP	38	48	7
TAP	38	96	1
TAP	38	192	1
TAP	38	192	3
TAP	38	288	4
TAP	38	288	6
STR	39	0	6
SCL	39	0	6	96	48	3
TAP	39	0	7
TAP	39	192	0
STR	39	192	1
SCR	39	192	1	96	48	4
TAP	40	0	6
TAP	40	48	6
TAP	40	96	4
TAP	40	192	3
TAP	40	192	5
TAP	40	288	2
TAP	40	288	4
TTP	41	0	2	B	0	M1
TTP	41	0	3	B	0	M1
TTP	41	0	3	E	0	M1
TTP	41	0	7	E	0	M1
TTP	41	96	1	E	0	M1
TTP	41	96	4	B	0	M1
TTP	41	96	5	B	0	M1
TTP	41	96	5	E	0	M1
XHO	41	192	7	96
XTP	41	288	0
TAP	42	0	6
TAP	42	48	6
TAP	42	96	3
TAP	42	96	5
TTP	42	192	2	E	0	M1
TTP	42	192	3	B	0	M1
TTP	42	192	4	B	0	M1
TTP	42	192	4	E	0	M1
XST	42	288	1
SUR	42	288	1	96	192	3
HLD	43	0	7	192
TAP	43	288	4
TAP	43	288	6
TAP	43	336	4
TAP	43	336	6
TAP	44	48	1
TAP	44	48	3
TAP	44	96	1
TAP	44	96	3
XTP	44	192	0
XTP	44	192	7
XTP	44	288	2
XTP	44	288	6
HLD	45	0	1	672
HLD	45	0	5	288
HLD	46	0	3	672
HLD	47	0	4	672
HLD	48	0	6	960
TTP	49	0	0	C	0	M1
TTP	49	192	0	C	0	M1
TTP	50	0	0	C	0	M1
STR	50	192	0
SCR	50	192	0	96	288	7
HLD	52	0	0	96
HLD	52	0	7	96
TAP	52	192	0
TAP	52	192	7
BRK	52	288	2
BRK	52	288	5
TTP	53	0	0	B	0	M1
TTP	53	96	1	B	0	M1
TTP	53	192	2	B	0	M1
TTP	53	288	3	B	0	M1
TTP	54	0	4	B	0	M1
TTP	54	96	5	B	0	M1
TTP	54	192	6	B	0	M1
TTP	54	288	7	B	0	M1
TTP	55	0	3	B	0	M1
TTP	55	96	2	B	0	M1
TTP	55	192	1	B	0	M1
TTP	55	288	0	B	0	M1
TTP	56	0	1	E	0	M1
TTP	56	0	7	E	0	M1
TTP	56	96	1	B	0	M1
TTP	56	96	6	B	0	M1
TTP	56	192	2	B	0	M1
TTP	56	192	5	B	0	M1
TTP	56	288	3	E	0	M1
TTP	56	288	5	E	0	M1
XHO	57	0	6	96
XHO	57	96	7	96
HLD	57	192	0	96
HLD	57	288	1	96
HLD	58	0	2	96
HLD	58	96	3	96
HLD	58	192	4	96
TAP	58	288	5
TAP	59	0	4
TAP	59	0	5
TAP	59	96	3
TAP	59	96	6
TAP	59	192	2
TAP	59	192	7
TAP	59	288	0
TAP	59	288	1
BRK	59	336	0
BRK	59	336	1
TAP	60	48	6
TAP	60	48	7
TAP	60	96	6
TAP	60	96	7
XTP	60	192	3
XTP	60	192	4
XTP	60	288	1
XTP	60	288	6
BST	61	0	0
SI_	61	0	0	96	48	4
BST	61	0	1
SI_	61	0	1	96	48	5
STR	61	192	6
SI_	61	192	6	96	48	2
STR	61	192	7
SI_	61	192	7	96	48	3
TAP	62	0	1
TAP	62	48	1
TAP	62	96	2
TAP	62	96	4
TAP	62	192	3
TAP	62	192	5
TAP	62	288	2
TAP	62	288	6
BST	63	0	4
SXL	63	0	4	96	120	4
SXR	63	0	4	96	120	4
TAP	63	288	2
TAP	63	288	6
HLD	64	0	1	96
TAP	64	0	5
HLD	64	96	7	144
TAP	64	192	0
TAP	64	240	0
TAP	64	288	1
TAP	64	288	5
XST	65	0	6
SCL	65	0	6	96	48	3
XST	65	96	7
SV_	65	96	7	96	48	2
XST	65	192	6
SCL	65	192	6	96	48	3
TAP	65	288	0
TAP	66	0	1
TAP	66	48	1
TAP	66	96	2
HLD	66	96	3	96
HLD	66	192	5	96
STR	66	288	7
SCL	66	288	7	96	192	1
TTP	67	0	0	C	1	M1
TAP	67	288	0
TAP	67	288	7
HLD	68	0	1	48
HLD	68	0	4	48
HLD	68	96	3	48
HLD	68	96	6	48
TAP	68	192	0
TAP	68	192	7
TAP	68	240	0
TAP	68	240	7
TAP	68	288	1
TAP	68	288	6
BST	69	0	6
SI_	69	0	6	96	48	2
BST	69	0	7
SI_	69	0	7	96	48	3
STR	69	192	0
SI_	69	192	0	96	48	4
STR	69	192	1
SI_	69	192	1	96	48	5
TAP	70	0	6
TAP	70	48	6
TAP	70	96	3
TAP	70	96	5
TAP	70	192	1
TAP	70	192	7
TAP	70	288	3
TAP	70	288	4
TAP	71	0	4
STR	71	0	5
SI_	71	0	5	96	48	0
STR	71	192	2
SI_	71	192	2	96	48	7
TAP	71	192	3
TAP	72	0	6
TAP	72	48	6
TAP	72	96	4
TAP	72	192	3
TAP	72	192	5
TAP	72	288	2
TAP	72	288	4
TTP	73	0	1	E	0	M1
TTP	73	0	4	B	0	M1
TTP	73	0	5	B	0	M1
TTP	73	0	5	E	0	M1
TTP	73	96	2	B	0	M1
TTP	73	96	3	B	0	M1
TTP	73	96	3	E	0	M1
TTP	73	96	7	E	0	M1
XHO	73	192	0	96
XTP	73	288	7
TAP	74	0	1
TAP	74	48	1
TAP	74	96	2
TAP	74	96	4
TTP	74	192	3	B	0	M1
TTP	74	192	4	B	0	M1
TTP	74	192	4	E	0	M1
TTP	74	192	6	E	0	M1
XST	74	288	6
SUL	74	288	6	96	192	4
HLD	75	0	0	192
TAP	75	288	1
TAP	75	288	3
TAP	75	336	1
TAP	75	336	3
TAP	76	48	4
TAP	76	48	6
TAP	76	96	4
TAP	76	96	6
XTP	76	192	0
XTP	76	192	7
XTP	76	288	3
XTP	76	288	4
TTP	77	0	0	C	1	M1
TTP	77	0	1	B	0	M1
TTP	77	0	2	B	0	M1
TTP	77	0	5	B	0	M1
TTP	77	0	6	B	0	M1
XTP	77	288	6
XTP	77	288	7
XHO	77	336	6	96
XHO	77	336	7	96
HLD	78	96	0	48
HLD	78	96	1	48
TAP	78	192	3
TAP	78	192	4
TAP	78	288	1
TAP	78	288	6
TTP	79	0	0	C	1	M1
TTP	79	0	1	B	0	M1
TTP	79	0	2	B	0	M1
TTP	79	0	2	E	0	M1
TTP	79	0	5	B	0	M1
TTP	79	0	6	B	0	M1
TTP	79	0	6	E	0	M1
HLD	80	0	5	384
TAP	80	96	3
TAP	80	192	4
TAP	80	288	3
HLD	81	0	2	288
TAP	81	96	4
TAP	81	192	3
TAP	81	288	4
TAP	82	0	2
TAP	82	0	3
TAP	82	96	0
TAP	82	96	1
TAP	82	192	0
TAP	82	192	7
TAP	82	240	0
TAP	82	240	7
BRK	82	288	1
BRK	82	288	6

T_REC_TAP	224
T_REC_BRK	6
T_REC_XTP	33
T_REC_HLD	53
T_REC_XHO	9
T_REC_STR	23
T_REC_BST	8
T_REC_XST	8
T_REC_TTP	87
T_REC_THO	0
T_REC_SLD	42
T_REC_ALL	493
T_NUM_TAP	375
T_NUM_BRK	14
T_NUM_HLD	62
T_NUM_SLD	42
T_NUM_ALL	493
T_JUDGE_TAP	389
T_JUDGE_HLD	222
T_JUDGE_SLD	42
T_JUDGE_ALL	653
TTM_EACHPAIRS	113
TTM_SCR_TAP	187500
TTM_SCR_BRK	36400
TTM_SCR_HLD	62000
TTM_SCR_SLD	63000
TTM_SCR_ALL	348900
TTM_SCR_S	337100
TTM_SCR_SS	347500
TTM_RAT_ACV	10040

