VERSION	0.00.00	1.03.00
FES_MODE	0
BPM_DEF	134.000	134.000	134.000	134.000
MET_DEF	4	4
RESOLUTION	384
CLK_DEF	384
COMPATIBLE_CODE	MA2

BPM	0	0	134.000
MET	0	0	4	4

XST	1	0	2
SCL	1	0	2	96	384	5
HLD	3	0	3	192
HLD	3	192	4	192
TAP	4	0	3
TAP	4	96	3
TAP	4	96	4
BRK	4	192	2
BRK	4	192	5
TAP	5	0	6
TAP	5	96	6
TAP	5	192	7
TAP	5	288	7
TAP	6	0	0
TAP	6	96	0
TAP	6	192	1
TAP	6	192	7
TAP	7	0	2
TAP	7	96	2
TAP	7	192	3
TAP	7	288	3
TAP	8	0	3
TAP	8	0	4
TAP	8	96	2
TAP	8	96	5
BRK	8	192	1
BRK	8	192	6
XHO	9	0	5	192
TAP	9	192	4
HLD	10	0	2	192
TAP	10	192	3
HLD	11	0	5	192
TAP	11	192	4
HLD	12	0	2	96
HLD	12	0	3	96
TAP	12	192	2
TAP	12	192	3
HLD	13	0	1	192
TAP	13	192	0
HLD	14	0	6	192
TAP	14	192	7
TAP	15	0	0
TAP	15	0	1
TAP	15	96	0
TAP	15	96	1
TAP	15	192	0
TAP	15	192	1
TAP	16	0	7
TAP	16	96	0
TAP	16	192	0
TAP	16	192	7
BRK	16	288	0
BRK	16	288	7
TAP	17	0	6
TAP	17	96	5
TAP	17	192	4
TAP	17	288	4
TAP	18	0	3
TAP	18	96	3
TAP	18	192	2
TAP	18	192	4
TAP	19	0	1
TAP	19	96	1
TAP	19	192	0
TAP	19	288	0
TAP	20	0	0
TAP	20	0	7
TAP	20	96	0
TAP	20	96	7
XTP	20	192	1
XTP	20	192	6
TAP	21	0	5
TAP	21	96	5
TAP	21	192	4
TAP	21	192	5
TAP	22	0	2
TAP	22	96	2
TAP	22	192	2
TAP	22	192	3
TAP	23	0	5
TAP	23	96	5
TAP	23	192	4
TAP	23	192	5
TAP	24	0	3
TAP	24	96	3
TAP	24	192	2
TAP	24	192	4
XTP	25	0	1
XTP	25	96	1
XTP	25	192	0
XTP	25	192	1
TAP	26	0	6
TAP	26	96	6
TAP	26	192	6
TAP	26	192	7
TAP	27	0	1
TAP	27	96	0
TAP	27	192	6
TAP	27	288	7
TAP	28	0	0
TAP	28	0	7
TAP	28	96	1
TAP	28	96	6
TAP	28	192	2
TAP	28	192	5
BRK	29	0	1
TAP	29	96	1
TAP	29	192	0
TAP	29	192	1
TAP	29	288	0
TAP	29	288	1
TAP	30	0	2
TAP	30	96	3
TAP	30	192	2
TAP	30	192	4
TAP	31	0	5
TAP	31	96	5
TAP	31	192	4
TAP	31	192	5
TAP	31	288	4
TAP	31	288	5
TAP	32	0	6
TAP	32	96	0
TAP	32	96	7
TAP	32	192	1
TAP	32	192	6
TAP	33	0	0
TAP	33	96	1
TAP	33	192	2
TAP	33	288	3
TAP	34	0	4
TAP	34	96	5
TAP	34	192	6
STR	34	288	7
SCL	34	288	7	96	288	2
TAP	36	0	1
TAP	36	96	0
TAP	36	192	0
TAP	36	192	7
TAP	36	288	0
TAP	36	288	7
BRK	37	0	6
TAP	37	96	5
TAP	37	192	4
TAP	37	192	5
TAP	37	288	4
TAP	37	288	5
TAP	38	0	6
TAP	38	96	7
TAP	38	192	0
TAP	38	192	6
TAP	39	0	1
TAP	39	96	1
TAP	39	192	0
TAP	39	192	1
TAP	39	288	0
TAP	39	288	1
TAP	40	0	2
TAP	40	96	3
TAP	40	96	4
TAP	40	192	2
TAP	40	192	5
XTP	41	0	6
XTP	41	0	7
XTP	41	96	6
XTP	41	96	7
TAP	41	192	5
TAP	41	288	4
TAP	42	0	3
TAP	42	96	2
XTP	42	192	0
XTP	42	192	1
STR	43	0	0
SCR	43	0	0	96	144	3
STR	43	0	7
SCL	43	0	7	96	144	4
XTP	44	0	3
XTP	44	0	4
TAP	44	96	3
TAP	44	96	4
TAP	44	192	2
TAP	44	192	5
THO	45	0	0	1344	C	0	L1
TTP	49	0	4	B	0	L1
TTP	49	0	5	B	0	L1
TTP	49	192	2	B	0	L1
TTP	49	192	3	B	0	L1
TTP	50	0	0	B	0	L1
TTP	50	0	1	B	0	L1
TTP	50	192	6	B	0	L1
TTP	50	192	7	B	0	L1
TTP	51	0	0	C	0	L1
TAP	52	0	0
TAP	52	0	7
XTP	52	192	1
XTP	52	192	6
HLD	53	0	5	192
HLD	53	192	4	192
HLD	54	0	3	192
TAP	54	192	2
HLD	55	0	1	192
HLD	55	192	0	192
HLD	56	0	7	192
TAP	56	192	6
TAP	57	0	5
TAP	57	96	5
TAP	57	192	4
TAP	58	0	2
TAP	58	96	2
TAP	58	192	3
TAP	59	0	4
TAP	59	96	4
TAP	59	192	3
TAP	59	288	3
XTP	60	0	3
XTP	60	0	4
XTP	60	96	3
XTP	60	96	4
XTP	60	192	2
XTP	60	192	5
BRK	61	0	6
TAP	61	96	6
TAP	61	96	7
TAP	61	192	6
TAP	61	288	6
TAP	61	288	7
TAP	62	0	5
TAP	62	96	4
TAP	62	192	3
TAP	62	288	2
TAP	63	0	1
TAP	63	96	0
TAP	63	96	1
TAP	63	192	1
TAP	63	288	0
TAP	63	288	1
TAP	64	0	2
TAP	64	96	3
TAP	64	96	4
TAP	64	192	2
TAP	64	192	5
XTP	65	0	6
XTP	65	0	7
XTP	65	96	6
XTP	65	96	7
XTP	65	192	6
XTP	65	192	7
TAP	65	288	5
TAP	66	0	4
TAP	66	96	3
TAP	66	192	2
STR	66	288	1
SSL	66	288	1	96	288	5
TAP	68	0	6
TAP	68	96	7
TAP	68	192	0
TAP	68	192	7
TAP	68	288	0
TAP	68	288	7
BRK	69	0	1
TAP	69	96	2
TAP	69	96	3
TAP	69	192	2
TAP	69	288	2
TAP	69	288	3
TAP	70	0	1
TAP	70	96	0
TAP	70	192	7
TAP	70	288	6
TAP	71	0	5
TAP	71	96	4
TAP	71	96	5
TAP	71	192	5
TAP	71	288	4
TAP	71	288	5
TAP	72	0	6
TAP	72	96	0
TAP	72	96	7
TAP	72	192	1
TAP	72	192	6
XTP	73	0	2
XTP	73	0	3
XTP	73	96	2
XTP	73	96	3
TAP	73	192	1
TAP	73	288	0
TAP	74	0	7
TAP	74	96	6
XTP	74	192	4
XTP	74	192	5
HLD	75	0	3	192
HLD	75	0	6	192
XST	76	0	6
SCL	76	0	6	96	144	3
XST	76	0	7
SCR	76	0	7	96	144	2
TTP	77	0	0	C	1	L1
XST	78	0	0
SCL	78	0	0	96	144	5
XST	78	0	1
SCR	78	0	1	96	144	4
TTP	79	0	0	C	1	L1
TAP	80	0	5
TAP	80	96	5
TAP	80	192	4
TAP	80	192	5
TAP	81	0	2
TAP	81	96	2
TAP	81	192	2
TAP	81	192	3
TAP	82	0	3
TAP	82	0	4
TAP	82	96	2
TAP	82	96	5
TAP	82	192	1
TAP	82	192	6
XTP	82	288	0
XTP	82	288	7

T_REC_TAP	225
T_REC_BRK	10
T_REC_XTP	36
T_REC_HLD	16
T_REC_XHO	1
T_REC_STR	4
T_REC_BST	0
T_REC_XST	5
T_REC_TTP	11
T_REC_THO	1
T_REC_SLD	9
T_REC_ALL	318
T_NUM_TAP	281
T_NUM_BRK	10
T_NUM_HLD	18
T_NUM_SLD	9
T_NUM_ALL	318
T_JUDGE_TAP	291
T_JUDGE_HLD	92
T_JUDGE_SLD	9
T_JUDGE_ALL	392
TTM_EACHPAIRS	83
TTM_SCR_TAP	140500
TTM_SCR_BRK	26000
TTM_SCR_HLD	18000
TTM_SCR_SLD	13500
TTM_SCR_ALL	198000
TTM_SCR_S	191100
TTM_SCR_SS	197000
TTM_RAT_ACV	10050

