VERSION	0.00.00	1.03.00
FES_MODE	0
BPM_DEF	134.000	134.000	134.000	134.000
MET_DEF	4	4
RESOLUTION	384
CLK_DEF	384
COMPATIBLE_CODE	MA2

BPM	0	0	134.000
MET	0	0	4	4

TAP	5	0	0
TAP	6	0	0
TAP	7	0	7
BRK	8	0	7
TAP	9	96	0
TAP	9	288	0
TAP	10	96	1
TAP	10	288	1
TAP	11	96	2
TAP	11	288	2
TAP	12	96	3
TAP	12	288	3
TAP	13	96	4
TAP	13	288	4
TAP	14	96	5
TAP	14	288	5
TAP	15	96	6
TAP	15	288	6
TAP	16	96	7
XTP	16	288	0
XTP	16	288	7
HLD	17	96	7	192
HLD	18	96	7	192
HLD	19	96	0	192
HLD	20	96	0	192
TAP	21	96	7
TAP	21	288	7
TAP	22	96	6
TAP	22	288	6
TAP	23	96	5
TAP	23	288	5
TAP	24	96	3
TAP	24	96	4
TAP	24	288	3
TAP	24	288	4
TAP	25	96	3
TAP	25	288	3
TAP	26	96	2
TAP	26	288	2
TAP	27	96	0
TAP	27	96	1
TAP	27	288	0
TAP	27	288	1
TAP	28	96	7
BRK	28	192	7
TAP	29	0	0
TAP	29	96	0
TAP	29	192	0
TAP	30	0	1
TAP	30	192	1
TAP	31	0	2
TAP	31	96	2
TAP	31	192	2
TAP	32	0	3
TAP	32	192	3
TAP	32	192	4
TAP	33	0	4
TAP	33	96	4
TAP	33	192	4
TAP	34	0	5
TAP	34	192	5
TAP	35	0	6
TAP	35	96	6
TAP	35	192	6
TAP	36	0	0
TAP	36	0	7
TAP	36	192	0
TAP	36	192	7
TAP	37	0	7
TAP	37	96	7
TAP	37	192	7
TAP	38	0	6
TAP	38	192	6
TAP	39	0	5
TAP	39	96	5
TAP	39	192	5
TAP	40	0	4
TAP	40	192	3
TAP	40	192	4
TAP	41	0	3
TAP	41	96	3
TAP	41	192	3
TAP	42	0	2
TAP	42	192	2
TAP	43	0	1
TAP	43	96	1
TAP	43	192	1
TAP	44	0	0
TAP	44	192	0
TAP	44	192	7
STR	45	0	0
SI_	45	0	0	96	288	3
STR	47	0	7
SI_	47	0	7	96	288	4
TTP	49	0	3	B	0	L1
TTP	50	0	4	B	0	L1
TTP	51	0	2	B	0	L1
TTP	52	0	0	C	0	L1
TTP	53	0	6	B	0	L1
TTP	53	0	7	B	0	L1
TTP	54	0	4	B	0	L1
TTP	54	0	5	B	0	L1
TTP	55	0	2	B	0	L1
TTP	55	0	3	B	0	L1
TTP	56	0	0	B	0	L1
TTP	56	0	1	B	0	L1
TAP	57	0	7
TAP	57	192	7
TAP	58	0	7
TAP	58	192	7
HLD	59	0	0	336
HLD	59	0	7	336
XTP	60	192	0
XTP	60	192	7
TAP	61	0	7
TAP	61	96	7
TAP	61	192	7
TAP	62	0	6
TAP	62	96	6
TAP	62	192	6
TAP	63	0	5
TAP	63	96	5
TAP	63	192	5
TAP	64	0	4
TAP	64	96	4
TAP	64	192	3
TAP	64	192	4
TAP	65	0	3
TAP	65	96	3
TAP	65	192	3
TAP	66	0	2
TAP	66	96	2
TAP	66	192	2
TAP	67	0	1
TAP	67	96	1
TAP	67	192	1
TAP	68	0	0
TAP	68	0	7
TAP	68	96	0
TAP	68	96	7
BRK	68	192	0
BRK	68	192	7
TAP	69	0	0
TAP	69	96	0
TAP	69	192	0
TAP	70	0	1
TAP	70	96	1
TAP	70	192	1
TAP	71	0	2
TAP	71	96	2
TAP	71	192	2
TAP	72	0	3
TAP	72	0	4
TAP	72	96	3
TAP	72	96	4
TAP	72	192	3
TAP	72	192	4
TAP	73	0	4
TAP	73	96	4
TAP	73	192	4
TAP	74	0	5
TAP	74	96	5
TAP	74	192	5
TAP	75	0	6
TAP	75	96	6
TAP	75	192	6
XTP	76	0	7
XTP	76	96	7
XTP	76	192	0
XTP	76	288	0
XHO	77	0	0	384
XHO	77	0	7	384
XTP	78	192	0
XTP	78	192	7
XTP	78	288	0
XTP	78	288	7
XST	79	0	0
SI_	79	0	0	96	288	3
XST	79	0	7
SI_	79	0	7	96	288	4
TTP	81	0	3	B	0	L1
TTP	81	0	4	B	0	L1
THO	82	0	0	288	C	0	L1

T_REC_TAP	136
T_REC_BRK	4
T_REC_XTP	12
T_REC_HLD	6
T_REC_XHO	2
T_REC_STR	2
T_REC_BST	0
T_REC_XST	2
T_REC_TTP	14
T_REC_THO	1
T_REC_SLD	4
T_REC_ALL	183
T_NUM_TAP	166
T_NUM_BRK	4
T_NUM_HLD	9
T_NUM_SLD	4
T_NUM_ALL	183
T_JUDGE_TAP	170
T_JUDGE_HLD	52
T_JUDGE_SLD	4
T_JUDGE_ALL	226
TTM_EACHPAIRS	23
TTM_SCR_TAP	83000
TTM_SCR_BRK	10400
TTM_SCR_HLD	9000
TTM_SCR_SLD	6000
TTM_SCR_ALL	108400
TTM_SCR_S	104800
TTM_SCR_SS	108000
TTM_RAT_ACV	10037

