VERSION	0.00.00	1.03.00
FES_MODE	0
BPM_DEF	124.000	124.000	124.000	124.000
MET_DEF	4	4
RESOLUTION	384
CLK_DEF	384
COMPATIBLE_CODE	MA2

BPM	0	0	124.000
MET	0	0	4	4

XTP	1	0	1
XTP	1	0	3
XTP	1	96	4
XTP	1	96	6
XTP	1	192	2
XTP	1	192	3
XTP	1	288	4
XTP	1	288	5
TAP	2	0	2
TAP	2	32	2
TAP	2	48	3
TAP	2	96	1
TAP	2	96	4
TAP	2	144	1
TAP	2	144	4
TAP	2	192	2
TAP	2	224	2
TAP	2	240	3
TAP	2	288	1
TAP	2	288	4
TAP	2	336	0
TAP	3	0	5
TAP	3	32	5
TAP	3	48	4
TAP	3	96	3
TAP	3	96	6
TAP	3	144	3
TAP	3	144	6
TAP	3	192	5
TAP	3	224	5
TAP	3	240	4
TAP	3	288	3
TAP	3	288	6
TAP	3	336	2
HLD	4	0	2	48
HLD	4	0	3	48
TAP	4	80	2
TAP	4	80	3
TAP	4	128	1
TAP	4	128	4
TAP	4	176	2
TAP	4	176	5
TAP	4	224	3
TAP	4	224	6
TAP	4	272	5
TAP	4	288	4
TAP	4	336	3
TAP	4	336	6
TAP	5	0	2
TAP	5	32	2
TAP	5	48	3
TAP	5	96	5
TAP	5	128	5
TAP	5	144	4
TAP	5	192	2
TAP	5	192	6
TAP	5	240	3
TAP	5	240	4
TAP	5	288	1
TAP	5	288	5
TAP	6	0	6
TAP	6	32	6
TAP	6	48	7
TAP	6	96	0
TAP	6	96	5
TAP	6	144	0
TAP	6	144	5
TAP	6	192	6
TAP	6	224	6
TAP	6	240	7
TAP	6	288	0
TAP	6	288	5
TAP	6	336	4
TAP	7	0	1
TAP	7	32	1
TAP	7	48	0
TAP	7	96	2
TAP	7	96	7
TAP	7	144	2
TAP	7	144	7
TAP	7	192	1
TAP	7	224	1
TAP	7	240	0
TAP	7	288	2
TAP	7	288	7
TAP	7	336	3
HLD	8	0	4	48
HLD	8	0	5	48
TAP	8	80	4
TAP	8	80	5
TAP	8	128	3
TAP	8	128	4
TAP	8	176	2
TAP	8	176	3
TAP	8	224	1
TAP	8	224	4
TAP	8	272	2
TAP	8	288	3
TAP	8	336	1
TAP	8	336	6
TAP	9	0	7
TAP	9	32	7
TAP	9	48	0
TAP	9	80	0
TAP	9	96	7
TAP	9	128	7
TAP	9	144	0
TAP	9	176	0
XTP	9	192	0
XTP	9	192	7
XTP	9	264	1
XTP	9	264	6
XTP	9	336	3
XTP	9	336	4
TAP	10	0	3
HLD	10	0	4	96
XHO	10	96	1	72
TAP	10	168	3
TAP	10	216	3
TAP	10	232	2
TAP	10	288	1
TAP	10	288	4
TAP	10	336	2
HLD	11	0	3	96
TAP	11	0	4
HLD	11	96	6	72
TAP	11	168	4
TAP	11	216	4
TAP	11	232	5
TAP	11	288	3
TAP	11	288	6
TAP	11	336	5
TAP	12	0	2
HLD	12	0	4	96
XHO	12	96	0	72
TAP	12	168	3
TAP	12	216	3
TAP	12	232	1
TAP	12	288	2
TAP	12	288	4
TAP	12	336	5
TAP	13	0	3
TAP	13	0	6
TAP	13	48	2
XTP	13	96	1
XTP	13	96	4
TAP	13	144	2
XTP	13	192	3
TAP	13	192	4
XTP	13	240	5
XTP	13	288	2
TAP	13	288	6
TAP	14	0	3
HLD	14	0	4	96
XHO	14	96	1	72
TAP	14	168	3
TAP	14	216	3
TAP	14	232	2
TAP	14	288	1
TAP	14	288	4
TAP	14	336	2
HLD	15	0	3	96
TAP	15	0	5
HLD	15	96	6	72
TAP	15	168	4
TAP	15	216	4
TAP	15	232	5
TAP	15	288	3
TAP	15	288	6
TAP	15	336	2
HLD	16	0	1	96
TAP	16	0	4
XHO	16	96	3	72
TAP	16	168	2
TAP	16	216	4
TAP	16	232	3
STR	16	288	3
SI_	16	288	3	96	48	7
TAP	16	288	4
TAP	16	336	5
STR	17	0	6
SCL	17	0	6	96	48	3
BRK	17	96	0
TAP	17	192	1
TAP	17	192	2
TAP	17	272	2
TAP	17	272	3
TAP	17	336	3
TAP	17	336	4
STR	18	0	3
SI_	18	0	3	96	48	5
TAP	18	0	4
XHO	18	96	6	56
TAP	18	168	6
TAP	18	216	6
TAP	18	232	7
TAP	18	288	5
TAP	18	336	5
TAP	19	0	3
STR	19	0	4
SI_	19	0	4	96	48	2
HLD	19	96	1	56
TAP	19	168	1
TAP	19	216	1
TAP	19	232	0
TAP	19	288	2
TAP	19	336	2
STR	20	0	3
SI_	20	0	3	96	48	7
TAP	20	0	4
XHO	20	96	6	56
TAP	20	168	6
TAP	20	216	6
TAP	20	232	0
TAP	20	288	1
TAP	20	288	5
TAP	20	336	4
TAP	21	0	1
TAP	21	0	4
TAP	21	48	5
TAP	21	96	3
XTP	21	96	6
TAP	21	144	2
TAP	21	192	1
XTP	21	192	3
XTP	21	240	2
TAP	21	240	4
TAP	21	288	1
XTP	21	288	5
TAP	22	0	4
STR	22	0	5
SI_	22	0	5	96	48	2
XHO	22	96	1	56
TAP	22	168	1
TAP	22	216	1
TAP	22	232	3
TAP	22	288	0
TAP	22	336	1
STR	23	0	2
SI_	23	0	2	96	48	5
TAP	23	0	3
HLD	23	96	6	56
TAP	23	168	6
TAP	23	216	6
TAP	23	232	4
TAP	23	288	7
TAP	23	336	6
TAP	24	0	3
STR	24	0	5
SCL	24	0	5	96	48	2
XHO	24	96	0	56
TAP	24	168	0
TAP	24	216	0
TAP	24	232	7
STR	24	288	1
SCL	24	288	1	96	128	4
STR	24	288	6
SCR	24	288	6	96	128	3
TAP	24	336	2
TAP	24	336	5
TAP	25	192	2
TAP	25	192	5
TAP	25	240	1
TAP	25	240	6
BRK	25	288	0
BRK	25	288	7
TAP	26	0	2
TAP	26	48	1
TAP	26	48	3
TAP	26	96	5
TAP	26	144	4
TAP	26	144	6
STR	26	192	2
SCR	26	192	2	96	48	5
TAP	26	240	1
TAP	26	288	7
TAP	26	336	6
TAP	27	0	6
TAP	27	48	5
TAP	27	48	7
TAP	27	96	1
TAP	27	144	0
TAP	27	144	2
STR	27	192	6
SCR	27	192	6	96	48	1
TAP	27	240	5
TAP	27	288	3
HLD	27	336	2	240
TTP	28	48	0	B	0	M1
TTP	28	96	2	E	0	M1
TTP	28	144	3	B	0	M1
HLD	28	192	5	192
TTP	28	240	4	B	0	M1
TTP	28	288	6	E	0	M1
TTP	28	336	7	B	0	M1
STR	29	0	0
SCR	29	0	0	96	80	4
TAP	29	80	4
TAP	29	96	4
TAP	29	176	7
STR	29	192	7
SCL	29	192	7	96	80	3
TAP	29	272	3
TAP	29	288	3
TAP	29	336	2
TAP	30	0	2
TAP	30	48	1
TAP	30	48	3
TAP	30	80	1
TAP	30	80	3
TAP	30	128	2
TAP	30	128	4
HLD	30	176	3	64
TAP	30	176	5
TTP	30	240	4	E	0	M1
TTP	30	288	0	C	0	M1
TTP	30	336	0	E	0	M1
TAP	31	0	7
TAP	31	48	4
TAP	31	48	6
TAP	31	80	4
TAP	31	80	6
HLD	31	128	3	48
TAP	31	128	5
TTP	31	176	0	C	0	M1
TAP	31	240	0
TAP	31	240	7
TAP	31	288	1
TAP	31	288	6
TAP	31	336	2
TAP	31	336	5
HLD	32	0	4	48
TAP	32	48	3
STR	32	80	2
SLR	32	80	2	96	80	6
STR	32	80	5
SLL	32	80	5	96	80	1
TAP	32	128	1
TAP	32	128	6
XTP	32	288	7
XTP	32	336	0
STR	33	0	1
SI_	33	0	1	96	48	5
STR	33	48	7
SI_	33	48	7	96	48	3
TAP	33	96	1
TAP	33	144	7
BRK	33	192	0
TAP	33	288	3
TAP	33	288	6
TAP	33	336	3
TAP	33	336	6
TAP	33	368	5
STR	34	0	4
SCR	34	0	4	96	48	7
TAP	34	48	6
TAP	34	96	2
TAP	34	96	4
TAP	34	144	1
TAP	34	176	1
STR	34	192	0
SCR	34	192	0	96	48	3
TAP	34	240	2
TAP	34	288	0
TAP	34	288	6
TAP	34	336	5
HLD	34	368	5	48
TAP	35	32	4
TAP	35	48	6
TAP	35	80	6
TAP	35	96	7
TAP	35	128	6
TAP	35	128	7
TAP	35	176	0
TAP	35	176	5
TAP	35	240	3
TAP	35	240	6
TAP	35	288	1
TAP	35	288	7
HLD	35	320	1	48
TAP	35	320	7
TAP	35	368	3
TAP	36	48	2
TAP	36	48	4
TAP	36	96	0
TAP	36	96	6
TAP	36	128	0
HLD	36	128	6	48
TAP	36	176	4
TAP	36	240	3
TAP	36	240	4
TAP	36	288	2
TAP	36	288	5
TAP	36	336	0
TAP	36	336	7
TAP	36	368	0
HLD	36	368	7	112
TAP	37	48	6
STR	37	96	1
SCR	37	96	1	96	72	6
TTP	37	176	0	C	1	M1
XTP	37	240	7
XTP	37	288	7
TAP	37	336	2
TAP	37	336	7
TAP	37	368	1
STR	38	0	0
SCR	38	0	0	96	48	3
TAP	38	48	2
TAP	38	96	0
TAP	38	96	6
TAP	38	144	5
TAP	38	176	5
STR	38	192	4
SCR	38	192	4	96	48	7
TAP	38	240	6
TAP	38	288	2
TAP	38	288	4
TAP	38	336	1
HLD	38	368	1	48
TAP	39	32	0
TAP	39	48	2
TAP	39	80	2
TAP	39	96	3
TAP	39	128	3
XTP	39	176	1
XTP	39	176	4
TAP	39	240	4
TAP	39	240	5
TAP	39	288	3
TAP	39	288	6
HLD	39	320	3	48
TAP	39	320	6
TAP	39	368	2
TAP	40	48	0
TAP	40	48	1
TAP	40	96	2
TAP	40	96	7
HLD	40	128	2	48
TAP	40	128	7
TAP	40	176	3
TAP	40	240	5
STR	40	288	0
SCR	40	288	0	96	96	6
TAP	40	288	6
TAP	40	336	1
TAP	40	336	7
TAP	41	0	0
TAP	41	0	2
TTP	41	96	0	C	1	M1
XTP	41	176	0
XTP	41	192	7
TAP	41	224	7
TAP	41	240	1
TAP	41	272	1
TAP	41	288	5
TAP	41	320	5
TAP	41	336	2
HLD	42	0	3	96
TAP	42	0	4
TAP	42	48	5
TAP	42	96	4
TAP	42	144	2
TAP	42	192	3
HLD	42	192	4	96
TAP	42	240	5
TAP	42	288	3
TAP	42	336	5
HLD	43	0	2	96
TAP	43	0	3
TAP	43	48	1
TAP	43	96	3
TAP	43	144	1
TAP	43	192	4
HLD	43	192	5	96
TAP	43	240	6
TAP	43	288	4
TAP	43	336	6
HLD	44	0	2	96
TAP	44	0	3
TAP	44	48	1
HLD	44	96	4	96
TAP	44	144	5
HLD	44	192	3	96
TAP	44	240	2
STR	44	288	4
SI_	44	288	4	96	48	0
TAP	44	336	5
BST	45	0	2
SI_	45	0	2	96	48	7
TAP	45	48	1
BST	45	96	5
SCR	45	96	5	96	48	0
TAP	45	144	6
BST	45	192	1
SF_	45	192	1	96	48	5
TAP	45	240	2
TTP	45	288	0	C	1	M1
XTP	46	0	3
XTP	46	0	7
TAP	46	48	6
TAP	46	80	6
HLD	46	96	4	48
HLD	46	144	3	48
HLD	46	192	1	48
TAP	46	240	0
TAP	46	288	0
TAP	46	288	7
TAP	46	336	6
TAP	46	336	7
TAP	47	0	0
TAP	47	0	4
TAP	47	48	1
TAP	47	80	1
HLD	47	96	3	48
HLD	47	144	4	48
HLD	47	192	6	48
TAP	47	240	7
TAP	47	288	0
TAP	47	288	7
TAP	47	336	0
TAP	47	336	1
HLD	48	0	2	56
HLD	48	0	7	56
HLD	48	72	1	56
HLD	48	72	6	56
STR	48	144	0
SI_	48	144	0	96	48	4
TAP	48	144	5
TAP	48	240	0
TAP	48	240	7
TAP	48	336	3
TAP	48	336	5
STR	49	0	2
SCL	49	0	2	96	48	7
TAP	49	48	1
STR	49	96	5
SCL	49	96	5	96	48	2
TAP	49	144	6
STR	49	192	0
SCL	49	192	0	96	48	5
TAP	49	240	1
TAP	49	288	4
TAP	49	336	4
TAP	50	0	3
XTP	50	0	4
TAP	50	48	5
TAP	50	80	5
HLD	50	96	7	48
HLD	50	144	0	48
HLD	50	192	2	48
TAP	50	240	3
TAP	50	288	3
TAP	50	288	4
TAP	50	336	4
TAP	50	336	5
TAP	51	0	3
TAP	51	0	7
TAP	51	48	2
TAP	51	80	2
HLD	51	96	0	48
HLD	51	144	7	48
HLD	51	192	5	48
TAP	51	240	4
TAP	51	288	3
TAP	51	288	4
TAP	51	336	2
TAP	51	336	3
HLD	52	0	1	56
HLD	52	0	4	56
HLD	52	72	2	56
HLD	52	72	5	56
STR	52	144	3
SI_	52	144	3	96	48	7
TAP	52	144	6
TAP	52	240	3
TAP	52	240	4
TAP	52	336	0
TAP	52	336	6
BRK	53	0	0
BST	53	0	6
SCR	53	0	6	96	48	1
TAP	53	48	5
BST	53	96	4
SCR	53	96	4	96	48	7
TAP	53	144	3
BST	53	192	2
SCR	53	192	2	96	48	5
TAP	53	240	1
BST	53	288	0
SF_	53	288	0	96	384	4
TAP	53	336	7
BRK	54	0	0
XTP	56	48	1
XTP	56	48	3
XTP	56	240	4
XTP	56	240	5
XTP	56	264	3
XTP	56	264	6
XTP	57	48	2
XTP	57	48	5
TAP	57	96	3
TAP	57	96	4
TAP	57	128	3
TAP	57	144	4
BRK	57	176	1
BRK	57	176	6
TAP	57	240	2
HLD	57	288	2	72
TTP	57	360	2	B	0	M1
TTP	57	360	3	B	0	M1
TAP	58	48	5
HLD	58	96	5	72
TTP	58	168	4	B	0	M1
TTP	58	168	5	B	0	M1
TAP	58	240	3
STR	58	288	3
SI_	58	288	3	96	144	7
HLD	58	360	4	312
BRK	59	288	0
TAP	60	0	2
STR	60	0	3
SV_	60	0	3	96	48	0
TAP	60	48	1
TAP	60	96	3
TAP	60	96	5
TAP	60	144	6
TAP	60	176	6
STR	60	192	7
SCL	60	192	7	96	48	4
TAP	60	240	5
TAP	60	288	1
TAP	60	288	7
TAP	60	336	2
HLD	60	368	2	48
TAP	61	32	3
TAP	61	48	1
TAP	61	80	1
TAP	61	96	0
TAP	61	128	0
TAP	61	128	1
TAP	61	176	2
TAP	61	176	7
TAP	61	240	0
TAP	61	240	5
TAP	61	288	1
TAP	61	288	4
TAP	61	320	1
HLD	61	320	4	48
TAP	61	368	5
HLD	62	48	3	80
TAP	62	48	6
TAP	62	96	2
TAP	62	128	2
TAP	62	176	4
TAP	62	176	5
TAP	62	240	3
TAP	62	240	4
TAP	62	288	2
TAP	62	288	5
TAP	62	336	0
TAP	62	336	7
HLD	62	368	0	112
TAP	62	368	7
TAP	63	48	1
STR	63	96	6
SCL	63	96	6	96	64	1
TTP	63	176	0	C	1	M1
XTP	63	240	0
XTP	63	288	0
TAP	63	336	0
TAP	63	336	5
TAP	63	368	6
STR	64	0	7
SV_	64	0	7	96	48	4
TAP	64	48	5
TAP	64	96	1
TAP	64	96	7
TAP	64	144	2
TAP	64	176	2
STR	64	192	3
SCL	64	192	3	96	48	0
TAP	64	240	1
TAP	64	288	3
TAP	64	288	5
TAP	64	336	6
HLD	64	368	6	48
TAP	65	32	7
TAP	65	48	5
TAP	65	80	5
TAP	65	96	4
TAP	65	128	4
TAP	65	144	5
TAP	65	176	3
TAP	65	176	6
TAP	65	240	1
TAP	65	240	4
TAP	65	288	0
TAP	65	288	5
HLD	65	320	0	48
TAP	65	320	5
TAP	65	368	1
TAP	66	48	3
TAP	66	48	6
TAP	66	96	2
TAP	66	96	7
TAP	66	128	2
HLD	66	128	7	48
TAP	66	176	6
TAP	66	240	4
TAP	66	240	5
TAP	66	288	3
STR	66	288	6
SUL	66	288	6	96	48	2
TAP	66	336	7
STR	67	0	1
SCL	67	0	1	96	96	4
TAP	67	0	6
TTP	67	96	0	C	1	M1
BRK	67	96	1
XTP	67	240	2
XTP	67	240	3
TAP	67	288	1
TAP	67	288	4
HLD	67	320	1	48
TAP	67	320	4
TAP	67	368	0
TAP	68	48	2
TAP	68	48	7
TAP	68	96	3
TAP	68	96	6
TAP	68	128	3
HLD	68	128	6	48
TAP	68	176	7
TAP	68	240	4
TAP	68	240	6
STR	68	288	3
SCL	68	288	3	96	96	5
TAP	68	288	5
TAP	68	336	2
TAP	68	336	4
TAP	69	0	1
TAP	69	0	3
TTP	69	96	0	C	1	M1
XTP	69	176	7
XTP	69	192	0
TAP	69	224	0
TAP	69	240	6
TAP	69	272	6
TAP	69	288	2
TAP	69	320	2
TAP	69	320	5
STR	69	368	3
SCL	69	368	3	96	400	4
BST	69	368	4
SCR	69	368	4	96	400	3
TAP	71	192	3
TAP	71	224	3
TAP	71	240	4
TAP	71	288	3
TAP	71	288	4
HLD	72	0	4	48
HLD	72	0	5	48
TAP	72	80	4
TAP	72	80	5
TAP	72	128	3
TAP	72	128	6
TAP	72	176	2
TAP	72	176	5
HLD	72	224	1	48
HLD	72	224	4	48
TAP	72	288	1
TAP	72	288	4
TAP	72	336	0
STR	73	0	7
SI_	73	0	7	96	48	3
STR	73	48	1
SI_	73	48	1	96	48	5
STR	73	96	7
SCR	73	96	7	96	96	5
TAP	73	144	1
TAP	73	192	7
BRK	73	288	0
STR	74	0	1
SI_	74	0	1	96	48	4
STR	74	0	6
SI_	74	0	6	96	48	3
TAP	74	48	2
TAP	74	48	5
BRK	74	96	1
BRK	74	96	6
TAP	74	192	1
TAP	74	192	7
TAP	74	224	2
TAP	74	240	3
TAP	74	272	3
TAP	74	288	4
TAP	74	320	4
TAP	74	336	5
TAP	75	0	3
TAP	75	0	7
TAP	75	32	6
TAP	75	48	4
TAP	75	80	4
TAP	75	96	3
TAP	75	128	3
TAP	75	144	1
TAP	75	176	1
TAP	75	192	0
TAP	75	240	2
TAP	75	240	7
TAP	75	288	3
TAP	75	288	6
TAP	75	336	4
TAP	75	336	5
HLD	76	0	2	48
HLD	76	0	3	48
TAP	76	80	2
TAP	76	80	3
TAP	76	128	1
TAP	76	128	4
TAP	76	176	2
TAP	76	176	5
HLD	76	224	3	48
HLD	76	224	6	48
TAP	76	288	3
TAP	76	288	6
TAP	76	320	7
TAP	76	336	0
TAP	76	368	0
TAP	77	0	6
TAP	77	32	6
TAP	77	48	2
TAP	77	80	2
TAP	77	96	5
TAP	77	128	5
TAP	77	144	3
TAP	77	176	3
BRK	77	192	3
BRK	77	192	4
BRK	77	264	5
BRK	77	264	6
BRK	77	336	0
BRK	77	336	4

T_REC_TAP	570
T_REC_BRK	19
T_REC_XTP	48
T_REC_HLD	73
T_REC_XHO	8
T_REC_STR	45
T_REC_BST	8
T_REC_XST	0
T_REC_TTP	20
T_REC_THO	0
T_REC_SLD	53
T_REC_ALL	844
T_NUM_TAP	683
T_NUM_BRK	27
T_NUM_HLD	81
T_NUM_SLD	53
T_NUM_ALL	844
T_JUDGE_TAP	710
T_JUDGE_HLD	135
T_JUDGE_SLD	53
T_JUDGE_ALL	898
TTM_EACHPAIRS	212
TTM_SCR_TAP	341500
TTM_SCR_BRK	70200
TTM_SCR_HLD	81000
TTM_SCR_SLD	79500
TTM_SCR_ALL	572200
TTM_SCR_S	552450
TTM_SCR_SS	569500
TTM_RAT_ACV	10047

