VERSION	0.00.00	1.03.00
FES_MODE	0
BPM_DEF	124.000	124.000	124.000	124.000
MET_DEF	4	4
RESOLUTION	384
CLK_DEF	384
COMPATIBLE_CODE	MA2

BPM	0	0	124.000
MET	0	0	4	4

TTP	1	0	2	B	0	M1
TTP	1	0	3	B	0	M1
TTP	1	96	0	B	0	M1
TTP	1	96	1	B	0	M1
TTP	1	192	6	B	0	M1
TTP	1	192	7	B	0	M1
TTP	1	288	4	B	0	M1
TTP	1	288	5	B	0	M1
TAP	2	0	2
TAP	2	48	2
TAP	2	96	1
TAP	2	96	3
TAP	2	192	5
TAP	2	240	5
TAP	2	288	4
TAP	2	288	6
HLD	3	0	2	96
TAP	3	96	3
TAP	3	192	4
TAP	3	240	4
TAP	3	288	3
TAP	3	288	5
TAP	4	0	2
TAP	4	48	2
TAP	4	96	1
TAP	4	96	3
TAP	4	192	0
TAP	4	240	0
TAP	4	288	1
TAP	4	288	7
HLD	5	0	6	96
HLD	5	96	4	96
HLD	5	192	3	96
TAP	5	288	1
TAP	6	0	5
TAP	6	48	5
TAP	6	96	4
TAP	6	96	6
TAP	6	192	2
TAP	6	240	2
TAP	6	288	1
TAP	6	288	3
HLD	7	0	5	96
TAP	7	96	4
TAP	7	192	3
TAP	7	240	3
TAP	7	288	2
TAP	7	288	4
TAP	8	0	5
TAP	8	48	5
TAP	8	96	4
TAP	8	96	6
TAP	8	192	7
TAP	8	240	7
TAP	8	288	0
TAP	8	288	6
HLD	9	0	1	96
TAP	9	96	3
XTP	9	192	1
XTP	9	192	3
XTP	9	264	4
XTP	9	264	6
XTP	9	336	2
XTP	9	336	5
TAP	10	0	2
HLD	10	0	5	96
TAP	10	96	4
TAP	10	144	4
TAP	10	192	7
TAP	10	240	7
TAP	10	288	0
TAP	10	288	6
HLD	11	0	2	96
TAP	11	0	4
TAP	11	96	3
TAP	11	144	3
TAP	11	192	0
TAP	11	240	0
TAP	11	288	1
TAP	11	288	7
TAP	12	0	3
HLD	12	0	5	96
TAP	12	96	4
TAP	12	144	4
TAP	12	192	7
TAP	12	240	7
TAP	12	288	0
TAP	12	288	6
TAP	13	0	4
TAP	13	0	5
TAP	13	96	3
TAP	13	96	6
TAP	13	192	2
TAP	13	192	3
TAP	13	288	1
TAP	13	288	4
HLD	14	0	2	96
TAP	14	0	4
TAP	14	96	3
TAP	14	144	4
TAP	14	192	0
TAP	14	240	0
TAP	14	288	1
TAP	14	288	7
TAP	15	0	3
HLD	15	0	5	96
TAP	15	96	4
TAP	15	144	3
TAP	15	192	7
TAP	15	240	7
TAP	15	288	0
TAP	15	288	6
HLD	16	0	2	96
TAP	16	0	4
TAP	16	96	3
TAP	16	144	4
TAP	16	192	0
TAP	16	240	0
TAP	16	288	1
TAP	16	288	7
TAP	17	0	2
TAP	17	0	4
TAP	17	48	2
TAP	17	48	4
STR	17	96	1
SCL	17	96	1	96	96	6
STR	17	96	5
SCL	17	96	5	96	96	2
TAP	18	0	2
TAP	18	0	4
TAP	18	48	2
TAP	18	48	4
TAP	18	96	1
TAP	18	144	1
TAP	18	192	2
TAP	18	192	4
TAP	18	240	5
TAP	18	288	4
TAP	18	288	6
TAP	19	0	3
TAP	19	0	5
TAP	19	48	3
TAP	19	48	5
TAP	19	96	6
TAP	19	144	6
TAP	19	192	3
TAP	19	192	5
TAP	19	240	2
TAP	19	288	1
TAP	19	288	3
TAP	20	0	2
TAP	20	0	4
TAP	20	48	2
TAP	20	48	4
TAP	20	96	1
TAP	20	144	1
TAP	20	192	2
TAP	20	192	4
TAP	20	240	5
TAP	20	288	4
TAP	20	288	6
TAP	21	0	3
STR	21	0	5
SI_	21	0	5	96	48	0
TAP	21	192	3
TAP	21	240	3
TAP	21	288	2
TAP	21	288	4
TAP	22	0	3
TAP	22	0	5
TAP	22	48	3
TAP	22	48	5
TAP	22	96	6
TAP	22	144	6
TAP	22	192	7
TAP	22	240	0
TAP	22	288	1
TAP	22	288	3
TAP	23	0	2
TAP	23	0	4
TAP	23	48	2
TAP	23	48	4
TAP	23	96	1
TAP	23	144	1
TAP	23	192	0
TAP	23	240	7
TAP	23	288	4
TAP	23	288	6
TAP	24	0	3
TAP	24	0	5
TAP	24	48	3
TAP	24	48	5
TAP	24	96	6
TAP	24	144	6
TAP	24	192	7
TAP	24	240	0
TAP	24	288	1
TAP	24	288	3
HLD	25	0	2	96
TAP	25	0	4
TAP	25	96	3
TAP	25	144	3
TAP	25	192	4
TAP	25	240	4
TAP	25	288	3
TAP	25	288	5
STR	26	0	2
SI_	26	0	2	96	48	5
TAP	26	192	7
TAP	26	240	7
TAP	26	288	0
TAP	26	288	6
STR	27	0	5
SI_	27	0	5	96	48	2
TAP	27	192	0
TAP	27	240	0
TAP	27	288	1
TAP	27	288	7
HLD	28	0	6	96
HLD	28	96	4	96
HLD	28	192	3	96
HLD	28	288	1	96
STR	29	0	7
SCL	29	0	7	96	48	4
STR	29	192	0
SCR	29	192	0	96	48	3
TAP	30	0	6
TAP	30	48	6
TAP	30	96	4
TAP	30	144	4
TAP	30	192	3
TAP	30	240	3
TAP	30	288	2
TAP	30	288	5
HLD	31	0	1	168
HLD	31	0	6	168
XTP	31	240	0
XTP	31	240	7
XTP	31	288	0
XTP	31	288	7
HLD	32	0	1	96
HLD	32	96	3	96
HLD	32	192	4	96
HLD	32	288	6	96
TAP	33	0	0
TAP	33	48	0
TAP	33	96	1
TAP	33	96	7
TAP	33	144	1
TAP	33	144	7
TAP	33	192	2
TAP	33	192	6
BRK	33	288	7
TAP	34	0	2
TAP	34	0	3
TAP	34	48	1
TAP	34	48	4
TAP	34	96	0
TAP	34	96	5
TAP	34	192	4
TAP	34	192	5
TAP	34	240	3
TAP	34	240	6
TAP	34	288	2
TAP	34	288	7
TAP	35	0	2
TAP	35	48	3
HLD	35	96	4	72
HLD	35	168	5	72
TAP	35	240	6
HLD	35	288	6	72
HLD	35	360	5	72
TAP	36	48	4
HLD	36	96	3	72
HLD	36	168	2	72
TAP	36	240	1
TAP	36	288	1
TAP	36	336	7
STR	37	0	7
SI_	37	0	7	96	48	4
STR	37	96	0
SI_	37	96	0	96	48	3
XTP	37	288	7
TAP	38	0	4
TAP	38	0	5
TAP	38	48	3
TAP	38	48	6
TAP	38	96	2
TAP	38	96	7
TAP	38	192	2
TAP	38	192	3
TAP	38	240	1
TAP	38	240	4
TAP	38	288	0
TAP	38	288	5
TAP	39	0	5
TAP	39	48	4
HLD	39	96	3	72
HLD	39	168	2	72
TAP	39	240	1
HLD	39	288	1	72
HLD	39	360	2	72
TAP	40	48	3
HLD	40	96	4	72
HLD	40	168	5	72
TAP	40	240	6
TAP	40	288	6
TAP	40	336	0
HLD	41	0	0	96
TAP	41	96	7
TAP	41	192	1
TAP	41	192	6
TAP	41	240	2
TAP	41	240	5
TAP	41	288	3
TAP	41	288	4
HLD	42	0	5	192
TTP	42	96	5	E	0	M1
HLD	42	192	2	192
TTP	42	288	3	E	0	M1
HLD	43	0	6	192
TTP	43	96	5	E	0	M1
HLD	43	192	2	192
TTP	43	288	3	E	0	M1
HLD	44	0	5	192
TTP	44	96	5	E	0	M1
HLD	44	192	1	192
TTP	44	288	3	E	0	M1
TAP	45	0	7
TAP	45	96	0
TAP	45	96	6
TAP	45	192	1
TAP	45	192	5
TAP	45	288	2
TAP	45	288	4
STR	46	0	3
SI_	46	0	3	96	48	0
TAP	46	192	7
TAP	46	240	7
TAP	46	288	0
STR	47	0	4
SI_	47	0	4	96	48	7
TAP	47	192	0
TAP	47	240	0
TAP	47	288	7
HLD	48	0	3	72
HLD	48	72	2	72
TAP	48	144	1
XTP	48	240	0
XTP	48	240	3
TAP	48	336	4
TAP	48	336	5
TAP	49	0	4
TAP	49	0	5
TAP	49	96	6
TAP	49	96	7
TAP	49	192	0
TAP	49	192	1
TAP	49	288	2
TAP	49	288	3
STR	50	0	4
SI_	50	0	4	96	48	7
TAP	50	192	0
TAP	50	240	0
TAP	50	288	1
TAP	50	288	7
STR	51	0	3
SI_	51	0	3	96	48	0
TAP	51	192	7
TAP	51	240	7
TAP	51	288	0
TAP	51	288	6
HLD	52	0	4	72
HLD	52	72	5	72
TAP	52	144	6
XTP	52	240	4
XTP	52	240	7
TAP	52	336	2
HLD	53	0	2	96
HLD	53	96	0	96
HLD	53	192	7	96
HLD	53	288	5	96
HLD	54	0	3	816
THO	55	0	0	432	C	0	M1
XTP	56	240	1
XTP	56	240	6
TAP	57	48	0
TAP	57	48	7
HLD	57	96	0	144
HLD	57	96	7	144
XTP	57	360	2
XTP	58	48	1
XTP	58	48	3
XTP	58	168	5
STR	58	240	4
SI_	58	240	4	96	144	0
XHO	58	240	6	432
BRK	59	288	0
TAP	60	0	6
TAP	60	0	7
TAP	60	48	0
TAP	60	48	5
TAP	60	96	1
TAP	60	96	4
TAP	60	192	0
TAP	60	192	1
TAP	60	240	2
TAP	60	240	7
TAP	60	288	3
TAP	60	288	6
TAP	61	0	5
TAP	61	48	4
HLD	61	96	3	72
HLD	61	168	2	72
TAP	61	240	1
HLD	61	288	1	72
HLD	61	360	2	72
TAP	62	48	3
HLD	62	96	4	72
HLD	62	168	5	72
TAP	62	240	6
TAP	62	288	6
TAP	62	336	1
STR	63	0	1
SI_	63	0	1	96	48	4
STR	63	96	5
SI_	63	96	5	96	48	0
XTP	63	288	2
TAP	64	0	0
TAP	64	0	1
TAP	64	48	2
TAP	64	48	7
TAP	64	96	3
TAP	64	96	6
TAP	64	192	6
TAP	64	192	7
TAP	64	240	0
TAP	64	240	5
TAP	64	288	1
TAP	64	288	4
TAP	65	0	2
TAP	65	48	3
HLD	65	96	4	72
HLD	65	168	5	72
TAP	65	240	6
HLD	65	288	6	72
HLD	65	360	5	72
TAP	66	48	4
HLD	66	96	3	72
HLD	66	168	2	72
TAP	66	240	1
TAP	66	288	1
TAP	66	336	7
TAP	67	0	0
TAP	67	0	7
TAP	67	96	1
TAP	67	96	6
TAP	67	192	3
TAP	67	192	4
TAP	67	240	3
TAP	67	240	4
HLD	67	288	2	72
TAP	67	288	5
HLD	67	360	1	72
TAP	68	48	0
HLD	68	96	7	72
HLD	68	168	6	72
TAP	68	240	5
TAP	68	288	5
TAP	68	336	3
TAP	69	0	3
TAP	69	0	4
TAP	69	96	2
TAP	69	96	5
TAP	69	192	0
TAP	69	192	7
TAP	69	240	0
TAP	69	240	7
XTP	69	288	1
XTP	69	288	6
TAP	70	0	5
TAP	70	48	5
TAP	70	96	4
TAP	70	96	6
TAP	70	192	2
TAP	70	240	2
TAP	70	288	1
TAP	70	288	3
HLD	71	0	5	96
TAP	71	96	4
TAP	71	192	3
TAP	71	240	3
TAP	71	288	2
TAP	71	288	4
TAP	72	0	5
TAP	72	48	5
TAP	72	96	4
TAP	72	96	6
TAP	72	192	7
TAP	72	240	7
TAP	72	288	0
TAP	72	288	6
HLD	73	0	1	96
HLD	73	96	3	96
HLD	73	192	4	96
STR	73	288	6
SI_	73	288	6	96	48	2
BRK	74	96	0
TAP	74	192	4
TAP	74	240	4
TAP	74	288	3
TAP	74	288	5
HLD	75	0	2	96
TAP	75	96	3
TAP	75	192	4
TAP	75	240	4
TAP	75	288	3
TAP	75	288	5
TAP	76	0	2
TAP	76	48	2
TAP	76	96	1
TAP	76	96	3
TAP	76	192	0
TAP	76	240	0
TAP	76	288	1
TAP	76	288	7
HLD	77	0	6	96
TAP	77	96	4
XTP	77	192	4
XTP	77	192	6
XTP	77	264	1
XTP	77	264	3
XTP	77	336	2
XTP	77	336	5

T_REC_TAP	376
T_REC_BRK	3
T_REC_XTP	30
T_REC_HLD	75
T_REC_XHO	1
T_REC_STR	17
T_REC_BST	0
T_REC_XST	0
T_REC_TTP	14
T_REC_THO	1
T_REC_SLD	17
T_REC_ALL	534
T_NUM_TAP	437
T_NUM_BRK	3
T_NUM_HLD	77
T_NUM_SLD	17
T_NUM_ALL	534
T_JUDGE_TAP	440
T_JUDGE_HLD	201
T_JUDGE_SLD	17
T_JUDGE_ALL	658
TTM_EACHPAIRS	132
TTM_SCR_TAP	218500
TTM_SCR_BRK	7800
TTM_SCR_HLD	77000
TTM_SCR_SLD	25500
TTM_SCR_ALL	328800
TTM_SCR_S	318650
TTM_SCR_SS	328500
TTM_RAT_ACV	10009

