VERSION	0.00.00	1.03.00
FES_MODE	0
BPM_DEF	124.000	124.000	124.000	124.000
MET_DEF	4	4
RESOLUTION	384
CLK_DEF	384
COMPATIBLE_CODE	MA2

BPM	0	0	124.000
MET	0	0	4	4

XHO	1	0	3	192
XHO	1	0	4	192
TAP	2	0	2
TAP	2	96	2
TAP	2	192	3
TAP	2	288	3
TAP	3	0	4
TAP	3	96	4
TAP	3	192	3
TAP	3	192	5
TAP	4	0	6
TAP	4	96	6
TAP	4	192	7
TAP	4	288	7
TAP	5	0	0
TAP	5	96	0
TAP	5	192	0
TAP	5	192	7
TAP	6	0	1
TAP	6	96	1
TAP	6	192	0
TAP	6	288	0
TAP	7	0	7
TAP	7	96	7
TAP	7	192	0
TAP	7	192	6
TAP	8	0	5
TAP	8	96	5
TAP	8	192	4
TAP	8	288	4
TAP	9	0	3
TAP	9	96	3
TAP	9	96	4
BRK	9	192	2
BRK	9	192	5
HLD	10	0	6	192
TAP	10	192	7
TAP	10	288	0
HLD	11	0	1	192
TAP	11	192	0
TAP	11	288	7
HLD	12	0	6	192
TAP	12	192	7
TAP	12	288	0
STR	13	0	1
SCR	13	0	1	96	192	4
HLD	14	0	5	192
TAP	14	192	4
TAP	14	288	3
HLD	15	0	2	192
TAP	15	192	3
TAP	15	288	4
HLD	16	0	5	192
TAP	16	192	4
TAP	16	288	3
STR	17	0	2
SCL	17	0	2	96	192	7
TAP	18	0	6
TAP	18	96	6
TAP	18	192	6
TAP	18	192	7
TAP	19	0	1
TAP	19	96	1
TAP	19	192	0
TAP	19	192	1
TAP	20	0	6
TAP	20	96	6
TAP	20	192	7
TAP	20	288	7
STR	21	0	0
SI_	21	0	0	96	192	4
TAP	22	0	5
TAP	22	96	5
TAP	22	192	4
TAP	22	192	5
TAP	23	0	2
TAP	23	96	2
TAP	23	192	2
TAP	23	192	3
TAP	24	0	5
TAP	24	96	5
TAP	24	192	4
TAP	24	288	4
TAP	25	0	3
TAP	25	96	3
TAP	25	96	4
TAP	25	192	2
TAP	25	192	5
TTP	26	0	6	B	0	L1
TTP	26	96	5	B	0	L1
TTP	26	192	5	E	0	L1
TTP	27	0	1	B	0	L1
TTP	27	96	2	B	0	L1
TTP	27	192	3	E	0	L1
TTP	28	0	6	B	0	L1
TTP	28	96	7	B	0	L1
TTP	28	192	0	B	0	L1
TTP	28	288	1	B	0	L1
TTP	29	0	2	B	0	L1
TTP	29	96	3	B	0	L1
TTP	29	192	4	B	0	L1
HLD	30	0	6	192
TAP	30	192	7
TAP	30	288	6
TAP	30	288	7
HLD	31	0	1	192
TAP	31	192	0
TAP	31	288	0
TAP	31	288	1
TAP	32	0	7
TAP	32	96	7
TAP	32	192	0
TAP	32	288	0
TAP	33	0	0
TAP	33	0	7
TAP	33	96	1
TAP	33	96	6
TAP	33	192	2
TAP	33	192	5
TAP	34	0	6
TAP	34	96	6
TAP	34	96	7
TAP	34	192	6
TAP	34	288	6
TAP	34	288	7
TAP	35	0	1
TAP	35	96	0
TAP	35	96	1
TAP	35	192	1
TAP	35	288	0
TAP	35	288	1
TAP	36	0	2
TAP	36	96	2
TAP	36	192	3
TAP	36	288	3
TAP	37	0	4
TAP	37	96	3
TAP	37	96	4
TAP	37	192	2
TAP	37	192	5
TAP	38	0	1
TAP	38	96	0
TAP	38	96	1
TAP	38	192	1
TAP	38	288	0
TAP	38	288	1
TAP	39	0	6
TAP	39	96	6
TAP	39	96	7
TAP	39	192	6
TAP	39	288	6
TAP	39	288	7
TAP	40	0	5
TAP	40	96	4
TAP	40	192	3
TAP	40	288	2
TAP	41	0	1
TAP	41	96	0
TAP	41	192	7
TAP	41	288	6
STR	42	0	5
SCL	42	0	5	96	432	7
STR	44	0	6
SI_	44	0	6	96	192	2
TAP	45	0	1
TAP	45	96	0
TAP	45	96	7
BRK	45	192	1
BRK	45	192	6
HLD	46	0	5	192
HLD	46	192	4	192
HLD	47	0	3	192
TAP	47	192	2
TAP	48	0	1
TAP	48	96	1
TAP	48	192	0
XTP	49	0	7
XTP	49	96	7
XTP	49	192	0
XTP	49	192	6
HLD	50	0	1	192
HLD	50	192	0	192
HLD	51	0	7	192
TAP	51	192	6
TAP	52	0	5
TAP	52	96	5
TAP	52	192	4
TAP	53	0	3
TAP	53	96	3
TAP	53	192	4
TAP	53	288	4
STR	54	0	3
SXR	54	0	3	96	480	0
STR	54	0	4
SXL	54	0	4	96	480	7
TTP	56	0	5	B	0	L1
TTP	56	192	4	B	0	L1
TTP	57	0	3	B	0	L1
TTP	57	192	2	B	0	L1
TTP	58	0	1	B	0	L1
TTP	58	192	0	B	0	L1
TTP	59	0	7	B	0	L1
TTP	59	192	6	B	0	L1
TAP	60	0	2
TAP	60	96	2
TAP	60	96	3
TAP	60	192	5
TAP	60	288	4
TAP	60	288	5
TAP	61	0	6
TAP	61	96	6
TAP	61	96	7
TAP	61	192	1
TAP	61	288	0
TAP	61	288	1
TAP	62	0	2
TAP	62	96	2
TAP	62	192	3
TAP	62	288	3
TAP	63	0	4
TAP	63	96	3
TAP	63	96	4
TAP	63	192	2
TAP	63	192	5
TAP	64	0	6
TAP	64	96	6
TAP	64	96	7
TAP	64	192	1
TAP	64	288	0
TAP	64	288	1
TAP	65	0	2
TAP	65	96	2
TAP	65	96	3
TAP	65	192	5
TAP	65	288	4
TAP	65	288	5
TAP	66	0	6
TAP	66	96	7
TAP	66	192	0
TAP	66	288	1
BST	67	0	0
SCR	67	0	0	96	192	3
BST	67	0	7
SCL	67	0	7	96	192	4
TAP	68	0	4
TAP	68	96	3
TAP	68	192	2
TAP	68	288	1
TAP	69	0	0
TAP	69	96	7
TAP	69	192	6
TAP	69	288	5
STR	70	0	3
SXR	70	0	3	96	480	0
STR	70	0	4
SXL	70	0	4	96	480	7
TAP	72	0	1
TAP	72	96	1
TAP	72	192	0
TAP	72	288	0
TAP	73	0	0
TAP	73	0	1
TAP	73	96	0
TAP	73	96	1
TAP	73	192	2
TAP	73	192	7
TAP	74	0	6
TAP	74	96	6
TAP	74	192	7
TAP	74	288	7
TAP	75	0	6
TAP	75	0	7
TAP	75	96	6
TAP	75	96	7
TAP	75	192	0
TAP	75	192	5
TAP	76	0	5
TAP	76	96	5
TAP	76	192	4
TAP	76	288	4
TAP	77	0	4
TAP	77	0	5
TAP	77	96	3
TAP	77	96	6
HLD	77	192	2	144
HLD	77	192	7	144

T_REC_TAP	217
T_REC_BRK	4
T_REC_XTP	4
T_REC_HLD	16
T_REC_XHO	2
T_REC_STR	9
T_REC_BST	2
T_REC_XST	0
T_REC_TTP	21
T_REC_THO	0
T_REC_SLD	11
T_REC_ALL	286
T_NUM_TAP	251
T_NUM_BRK	6
T_NUM_HLD	18
T_NUM_SLD	11
T_NUM_ALL	286
T_JUDGE_TAP	257
T_JUDGE_HLD	70
T_JUDGE_SLD	11
T_JUDGE_ALL	338
TTM_EACHPAIRS	52
TTM_SCR_TAP	125500
TTM_SCR_BRK	15600
TTM_SCR_HLD	18000
TTM_SCR_SLD	16500
TTM_SCR_ALL	175600
TTM_SCR_S	169750
TTM_SCR_SS	175000
TTM_RAT_ACV	10034

