VERSION	0.00.00	1.03.00
FES_MODE	0
BPM_DEF	124.000	124.000	124.000	124.000
MET_DEF	4	4
RESOLUTION	384
CLK_DEF	384
COMPATIBLE_CODE	MA2

BPM	0	0	124.000
MET	0	0	4	4

TAP	2	0	0
TAP	3	0	0
TAP	4	0	7
TAP	5	0	7
HLD	6	0	0	384
HLD	8	0	7	384
TAP	10	0	0
TAP	10	192	0
TAP	11	0	0
TAP	12	0	1
TAP	12	192	1
TAP	13	0	1
TAP	14	0	2
TAP	14	192	2
TAP	15	0	2
TAP	16	0	3
TAP	16	192	3
TAP	17	0	3
TAP	17	0	4
TAP	18	0	4
TAP	18	192	4
TAP	19	0	4
TAP	20	0	5
TAP	20	192	5
TAP	21	0	5
TAP	22	0	6
TAP	22	192	6
TAP	23	0	6
TAP	24	0	7
TAP	24	192	7
TAP	25	0	0
TAP	25	0	7
STR	26	0	7
SI_	26	0	7	96	288	4
STR	28	0	0
SI_	28	0	0	96	288	3
STR	30	0	7
SI_	30	0	7	96	288	3
STR	32	0	0
SI_	32	0	0	96	288	4
XTP	34	0	7
TAP	34	192	7
TAP	35	0	6
TAP	35	192	6
TAP	36	0	5
TAP	36	192	5
TAP	37	0	3
TAP	37	0	4
TAP	37	192	3
TAP	37	192	4
TAP	38	0	3
TAP	38	192	3
TAP	39	0	2
TAP	39	192	2
TAP	40	0	1
TAP	40	192	1
TAP	41	0	0
TAP	41	192	0
STR	42	0	0
SI_	42	0	0	96	288	3
STR	42	0	7
SI_	42	0	7	96	288	4
TAP	44	0	3
TAP	44	192	3
TAP	45	0	3
TAP	45	0	4
XTP	46	0	5
TAP	46	192	5
TAP	47	0	4
TAP	47	0	5
TAP	48	0	2
TAP	48	192	2
TAP	49	0	2
TAP	49	0	3
TAP	50	0	1
TAP	50	192	1
TAP	51	0	0
TAP	51	0	1
TAP	52	0	6
TAP	52	192	6
TAP	53	0	6
TAP	53	0	7
TAP	53	192	6
TAP	53	192	7
BRK	54	0	0
TTP	56	0	0	B	0	L1
TTP	56	0	7	B	0	L1
TTP	57	0	1	B	0	L1
TTP	57	0	6	B	0	L1
TTP	58	0	2	B	0	L1
TTP	58	0	5	B	0	L1
TTP	59	0	3	B	0	L1
TTP	59	0	4	B	0	L1
XTP	60	0	0
TAP	60	96	0
TAP	60	192	0
TAP	61	0	1
TAP	61	192	1
TAP	62	0	2
TAP	62	96	2
TAP	62	192	2
TAP	63	0	3
TAP	63	0	4
TAP	63	192	3
TAP	63	192	4
TAP	64	0	4
TAP	64	96	4
TAP	64	192	4
TAP	65	0	5
TAP	65	192	5
TAP	66	0	6
TAP	66	96	6
TAP	66	192	6
TAP	67	0	6
TAP	67	0	7
TAP	67	192	6
TAP	67	192	7
TAP	68	0	0
TAP	68	96	0
TAP	68	192	0
TAP	69	0	0
TAP	69	0	1
TAP	69	192	0
TAP	69	192	1
HLD	70	0	7	192
TAP	71	0	7
TAP	71	192	7
HLD	72	0	6	192
TAP	73	0	6
TAP	73	192	6
HLD	74	0	5	192
TAP	75	0	5
TAP	75	192	5
HLD	76	0	3	192
HLD	76	0	4	192
TAP	77	0	3
TAP	77	0	4
HLD	77	192	2	144
HLD	77	192	5	144

T_REC_TAP	106
T_REC_BRK	1
T_REC_XTP	3
T_REC_HLD	9
T_REC_XHO	0
T_REC_STR	6
T_REC_BST	0
T_REC_XST	0
T_REC_TTP	8
T_REC_THO	0
T_REC_SLD	6
T_REC_ALL	139
T_NUM_TAP	123
T_NUM_BRK	1
T_NUM_HLD	9
T_NUM_SLD	6
T_NUM_ALL	139
T_JUDGE_TAP	124
T_JUDGE_HLD	42
T_JUDGE_SLD	6
T_JUDGE_ALL	172
TTM_EACHPAIRS	20
TTM_SCR_TAP	61500
TTM_SCR_BRK	2600
TTM_SCR_HLD	9000
TTM_SCR_SLD	9000
TTM_SCR_ALL	82100
TTM_SCR_S	79550
TTM_SCR_SS	82000
TTM_RAT_ACV	10012

