VERSION	0.00.00	1.03.00
FES_MODE	0
BPM_DEF	212.000	212.000	212.000	212.000
MET_DEF	4	4
RESOLUTION	384
CLK_DEF	384
COMPATIBLE_CODE	MA2

BPM	0	0	212.000
MET	0	0	4	4

STR	4	0	3
SI_	4	0	3	96	192	0
TAP	4	0	4
TAP	4	96	4
TAP	4	192	4
TAP	4	288	4
XTP	5	0	0
TAP	5	0	4
TAP	5	96	4
TAP	5	192	4
TAP	5	240	2
TAP	5	288	2
TAP	5	288	4
TAP	6	0	3
STR	6	0	4
SI_	6	0	4	96	192	7
TAP	6	96	3
TAP	6	192	3
TAP	6	288	3
STR	7	0	3
SCL	7	0	3	96	144	4
TTP	7	96	0	C	1	M1
BRK	8	0	0
BRK	8	0	7
BRK	8	96	3
BRK	8	96	4
BRK	8	192	1
BRK	8	192	6
STR	9	0	2
SI_	9	0	2	96	48	7
TAP	9	48	2
STR	9	96	5
SI_	9	96	5	96	48	0
TAP	9	144	5
STR	9	192	1
SI_	9	192	1	96	48	5
TAP	9	240	1
STR	9	288	6
SI_	9	288	6	96	48	2
TAP	9	336	6
STR	10	0	0
SI_	10	0	0	96	48	4
TAP	10	48	0
TAP	10	96	7
TAP	10	144	7
TAP	10	192	1
TAP	10	240	1
STR	10	288	4
SCR	10	288	4	96	96	0
STR	11	0	0
SCR	11	0	0	96	96	4
STR	11	96	4
SCR	11	96	4	96	96	0
STR	11	192	0
SCR	11	192	0	96	96	4
TAP	11	288	4
XHO	12	0	0	96
XTP	12	96	4
XTP	12	192	2
XTP	12	192	6
XTP	12	288	1
XTP	12	288	5
STR	13	0	2
SI_	13	0	2	96	48	4
TAP	13	96	7
STR	13	192	1
SI_	13	192	1	96	48	3
TAP	13	192	3
TAP	13	288	7
STR	14	0	5
SI_	14	0	5	96	48	3
TAP	14	96	0
TAP	14	192	4
TAP	14	192	6
TAP	14	288	2
HLD	15	0	0	96
TAP	15	96	3
TAP	15	192	1
TAP	15	192	5
STR	15	240	1
SLR	15	240	1	96	96	5
STR	15	240	5
SLR	15	240	5	96	96	1
XST	16	96	0
SI_	16	96	0	96	48	4
XST	16	96	7
SI_	16	96	7	96	48	3
XTP	16	192	0
XTP	16	192	7
TAP	16	288	1
TAP	16	288	6
TAP	17	0	0
STR	17	0	5
SI_	17	0	5	96	48	0
XTP	17	96	4
XTP	17	96	5
TAP	17	192	3
TAP	17	240	3
TAP	17	288	4
STR	18	0	2
SI_	18	0	2	96	48	7
TAP	18	0	7
XTP	18	96	2
XTP	18	96	3
TAP	18	192	4
TAP	18	240	4
TAP	18	288	3
TAP	19	0	0
STR	19	0	5
SI_	19	0	5	96	48	0
XTP	19	96	4
XTP	19	96	5
TAP	19	192	3
TAP	19	240	3
TAP	19	288	4
STR	20	0	2
SI_	20	0	2	96	48	7
TAP	20	0	7
XTP	20	96	2
XTP	20	96	3
TAP	20	192	5
TAP	20	288	3
TAP	20	288	6
STR	21	0	1
SCL	21	0	1	96	48	6
XTP	21	96	1
XTP	21	96	3
TAP	21	192	4
TAP	21	240	4
TAP	21	288	3
TAP	21	336	3
STR	22	0	6
SCR	22	0	6	96	48	1
XTP	22	96	4
XTP	22	96	6
TAP	22	192	3
TAP	22	240	3
TAP	22	288	4
TAP	22	336	4
STR	23	0	1
SCL	23	0	1	96	48	6
XTP	23	96	1
XTP	23	96	3
TAP	23	192	4
TAP	23	240	4
TAP	23	288	3
TAP	23	336	3
STR	24	0	6
SCL	24	0	6	96	144	0
BRK	24	96	0
XTP	24	96	6
TTP	25	0	6	E	0	M1
TTP	25	48	5	B	0	M1
TTP	25	96	0	C	0	M1
TTP	25	144	2	B	0	M1
TTP	25	192	2	E	0	M1
XTP	25	288	7
XTP	25	304	6
XTP	25	320	5
XTP	25	336	4
XHO	26	0	1	672
TAP	26	96	4
TAP	26	192	4
TAP	26	288	4
STR	27	0	7
SI_	27	0	7	96	48	3
STR	27	192	0
SI_	27	192	0	96	48	4
XHO	28	0	2	480
STR	28	0	6
SI_	28	0	6	96	48	1
TAP	28	192	0
TAP	28	288	0
STR	29	0	6
SI_	29	0	6	96	48	0
TAP	29	192	2
TAP	29	240	2
TAP	29	288	3
XTP	30	0	4
XTP	30	48	4
XHO	30	96	5	816
TAP	30	192	0
TAP	30	288	0
TAP	31	0	3
TAP	31	96	3
TAP	31	192	1
TAP	31	288	2
TAP	32	0	0
STR	32	48	0
SI_	32	48	0	96	48	2
TAP	32	240	3
TAP	32	240	4
STR	32	288	3
SI_	32	288	3	96	48	7
STR	32	288	4
SI_	32	288	4	96	48	0
BRK	33	0	3
BRK	33	0	4
XTP	33	96	1
XTP	33	96	6
TAP	33	192	0
TAP	33	216	7
TAP	33	240	0
TAP	33	288	2
TAP	33	288	5
TAP	34	0	1
TAP	34	48	1
TAP	34	96	3
TAP	34	120	2
TAP	34	144	3
TAP	34	192	1
TAP	34	192	4
TAP	34	240	1
TAP	34	240	4
TAP	34	288	0
TAP	34	288	5
TAP	35	0	6
TAP	35	48	6
TAP	35	96	0
TAP	35	120	7
TAP	35	144	0
STR	35	192	1
SI_	35	192	1	96	48	4
STR	35	192	6
SI_	35	192	6	96	48	3
TAP	35	240	1
TAP	35	240	6
TAP	36	0	2
STR	36	48	2
SI_	36	48	2	96	48	0
TAP	36	144	3
STR	36	192	3
SI_	36	192	3	96	48	7
TAP	36	288	2
STR	36	336	2
SXL	36	336	2	96	192	0
XTP	37	48	5
XTP	37	144	6
TAP	37	240	7
TAP	37	288	7
TAP	38	0	6
TAP	38	48	6
TAP	38	96	4
TAP	38	120	5
TAP	38	144	4
TAP	38	192	3
TAP	38	192	6
TAP	38	240	3
TAP	38	240	6
TAP	38	288	2
TAP	38	288	7
TAP	39	0	1
TAP	39	48	1
TAP	39	96	7
TAP	39	120	0
TAP	39	144	7
STR	39	192	1
SI_	39	192	1	96	48	4
STR	39	192	6
SI_	39	192	6	96	48	3
TAP	39	240	1
TAP	39	240	6
TAP	40	0	0
TAP	40	0	5
HLD	40	48	0	48
HLD	40	48	5	48
TAP	40	144	2
TAP	40	144	7
HLD	40	192	2	48
HLD	40	192	7	48
TAP	40	288	0
TAP	40	288	5
TAP	40	336	0
TAP	40	336	5
TAP	41	48	4
TAP	41	96	4
TAP	41	144	4
TAP	41	192	3
TAP	41	240	3
TAP	41	288	5
TAP	41	336	5
HLD	42	0	4	96
HLD	42	0	6	96
HLD	42	144	3	96
HLD	42	144	5	96
TAP	42	288	2
HLD	42	288	4	768
HLD	43	0	0	672
STR	45	0	2
SI_	45	0	2	96	480	5
TTP	46	0	1	E	0	M1
TTP	46	96	0	E	0	M1
TTP	46	192	7	E	0	M1
STR	47	0	0
SF_	47	0	0	96	288	4
TAP	48	192	3
TAP	48	192	5
TAP	48	288	3
STR	48	288	5
SCR	48	288	5	96	96	0
HLD	49	0	2	288
TAP	49	192	3
STR	49	288	4
SI_	49	288	4	96	96	7
HLD	50	0	3	288
TAP	50	192	4
STR	50	288	5
SXL	50	288	5	96	192	4
TAP	51	0	1
TAP	51	96	1
TAP	51	192	1
BRK	51	288	0
TAP	52	0	2
TAP	52	0	3
STR	52	48	2
SI_	52	48	2	96	48	0
STR	52	48	3
SI_	52	48	3	96	48	7
XTP	52	240	1
XTP	52	240	5
XTP	52	288	1
XTP	52	288	5
TAP	53	0	4
TAP	53	0	5
STR	53	48	4
SI_	53	48	4	96	48	0
STR	53	48	5
SI_	53	48	5	96	48	7
XTP	53	240	2
XTP	53	240	6
XTP	53	288	2
XST	53	288	6
SI_	53	288	6	96	48	2
BRK	54	0	0
XTP	54	0	6
BRK	54	288	1
BRK	54	288	7
XST	55	0	0
SI_	55	0	0	96	48	4
XST	55	48	6
SI_	55	48	6	96	48	2
XTP	55	96	0
XTP	55	144	6
TAP	55	240	1
TAP	55	288	2
TAP	55	288	5
TAP	55	336	6
BST	56	0	7
SI_	56	0	7	96	48	3
BST	56	48	1
SI_	56	48	1	96	48	5
BRK	56	96	7
BRK	56	144	1
TAP	56	240	6
STR	56	288	0
SCR	56	288	0	96	96	4
TAP	56	288	5
STR	57	0	4
SCR	57	0	4	96	96	0
TAP	57	96	0
TAP	57	192	5
STR	57	288	2
SI_	57	288	2	96	48	7
STR	58	0	5
SI_	58	0	5	96	48	2
STR	58	96	1
SI_	58	96	1	96	48	4
STR	58	192	6
SI_	58	192	6	96	48	1
BRK	58	288	3
STR	59	0	2
SI_	59	0	2	96	48	4
TAP	59	96	0
TAP	59	96	2
STR	59	192	1
SI_	59	192	1	96	48	3
TAP	59	192	3
TAP	59	288	0
TAP	59	288	1
STR	60	0	5
SI_	60	0	5	96	48	3
TAP	60	96	5
TAP	60	96	7
TAP	60	192	4
TAP	60	192	6
TAP	60	288	1
STR	61	0	0
SSL	61	0	0	96	144	4
XTP	61	96	5
XTP	61	144	5
XTP	61	192	5
XTP	61	240	5
XTP	61	288	5
TAP	62	0	2
TAP	62	0	4
BRK	62	96	1
BRK	62	96	5
TAP	62	192	4
TAP	62	240	4
TAP	62	288	3
STR	62	288	5
SI_	62	288	5	96	48	2
BRK	63	0	0
TAP	63	0	5
BST	63	96	1
SI_	63	96	1	96	48	5
TAP	63	192	1
BRK	63	192	7
BRK	63	288	7
TTP	64	0	0	B	0	M1
TTP	64	0	2	E	0	M1
TTP	64	96	3	E	0	M1
TTP	64	96	4	E	0	M1
TTP	64	192	6	E	0	M1
TTP	64	192	7	B	0	M1
TTP	64	288	4	E	0	M1
TTP	64	288	5	E	0	M1
STR	65	0	2
SCR	65	0	2	96	48	4
STR	65	96	6
SUL	65	96	6	96	48	2
XTP	65	192	1
XST	65	240	1
SXR	65	240	1	96	240	4
BRK	65	336	7
XTP	66	48	6
XTP	66	144	5
XTP	66	192	5
TAP	66	288	2
TAP	66	288	6
TAP	67	0	7
TAP	67	48	7
TAP	67	96	1
TAP	67	144	1
TAP	67	192	5
HLD	67	240	5	96
STR	67	336	4
SI_	67	336	4	96	48	0
TAP	68	48	7
STR	68	96	7
SI_	68	96	7	96	48	3
TAP	68	192	0
STR	68	288	1
SI_	68	288	1	96	48	6
STR	68	288	5
SI_	68	288	5	96	48	2
BRK	69	0	1
BRK	69	0	5
BRK	69	96	0
BRK	69	96	4
TAP	69	192	1
TAP	69	240	1
TAP	69	288	3
TAP	69	336	2
TAP	69	336	4
TAP	70	48	6
TAP	70	96	6
TAP	70	144	4
TAP	70	192	4
TAP	70	240	3
TAP	70	288	2
TAP	70	288	5
STR	71	0	0
SI_	71	0	0	96	48	4
STR	71	0	1
SI_	71	0	1	96	48	3
XTP	71	96	0
XTP	71	96	1
TAP	71	192	6
TAP	71	240	6
TAP	71	288	4
TAP	71	336	3
TAP	71	336	5
TTP	72	48	4	B	0	M1
TTP	72	48	5	E	0	M1
TTP	72	96	2	B	0	M1
TTP	72	96	3	E	0	M1
TTP	72	144	6	B	0	M1
TTP	72	144	7	E	0	M1
TTP	72	192	0	B	0	M1
TTP	72	192	1	E	0	M1
TTP	72	240	5	B	0	M1
TTP	72	240	5	E	0	M1
TTP	72	288	3	B	0	M1
TTP	72	288	3	E	0	M1
STR	73	0	1
SI_	73	0	1	96	48	4
STR	73	96	5
SI_	73	96	5	96	48	0
STR	73	192	2
SI_	73	192	2	96	48	7
TAP	73	288	6
HLD	73	336	6	96
TAP	74	48	3
TAP	74	96	3
TAP	74	144	5
TAP	74	192	5
TAP	74	240	2
TAP	74	288	4
STR	75	0	2
SCL	75	0	2	96	48	7
HLD	75	0	7	96
TAP	75	192	5
STR	75	288	2
SLL	75	288	2	96	144	3
TAP	75	288	7
TAP	75	336	2
STR	75	336	7
SV_	75	336	7	96	96	6
XTP	76	192	5
XTP	76	288	2
XTP	76	288	4
XTP	77	0	5
XTP	77	48	0
XTP	77	96	7
XTP	77	144	1
XTP	77	192	4
XTP	77	240	3
XTP	77	288	5
XTP	77	336	2
HLD	78	0	6	288
TAP	78	96	4
TAP	78	144	4
TAP	78	192	3
TAP	78	240	3
TAP	78	288	3
HLD	79	0	5	96
HLD	79	96	7	96
TAP	79	192	0
TAP	79	240	0
TAP	79	288	2
HLD	79	336	2	96
TAP	80	48	4
TAP	80	96	4
TTP	80	192	0	C	1	M1
TTP	80	192	2	B	0	M1
TTP	80	192	3	E	0	M1
TTP	80	192	6	B	0	M1
TTP	80	192	7	E	0	M1
XST	80	288	1
SXL	80	288	1	96	48	3
XST	80	288	7
SXR	80	288	7	96	48	5
XTP	81	0	1
XTP	81	0	7
XHO	81	96	2	96
XTP	81	96	6
TAP	81	192	5
TAP	81	240	1
STR	81	288	0
SI_	81	288	0	96	48	3
STR	81	288	4
SI_	81	288	4	96	48	7
XTP	82	0	0
XTP	82	0	4
XTP	82	96	2
XHO	82	96	6	96
TAP	82	192	4
TAP	82	240	6
STR	82	288	3
SI_	82	288	3	96	48	0
STR	82	288	7
SI_	82	288	7	96	48	4
XTP	83	0	3
XTP	83	0	7
XTP	83	96	1
XTP	83	96	5
TAP	83	144	1
TAP	83	144	5
STR	83	240	2
SV_	83	240	2	96	48	1
STR	83	240	6
SV_	83	240	6	96	48	5
TAP	83	288	2
TAP	83	288	6
TTP	83	360	0	C	1	M1
BST	85	0	7
SI_	85	0	7	96	1056	3
TTP	87	0	2	E	0	M1
TTP	88	0	1	E	0	M1
STR	89	0	0
SI_	89	0	0	96	1056	4
TAP	90	0	5
TAP	90	96	5
TAP	90	192	5
TTP	91	0	6	E	0	M1
TTP	91	192	6	B	0	M1
TTP	92	0	7	E	0	M1
BRK	92	192	7
STR	92	288	3
SI_	92	288	3	96	480	0
TAP	93	0	4
TAP	93	96	4
TAP	93	192	4
TAP	93	288	4
TAP	94	0	4
TAP	94	96	4
TAP	94	192	0
TAP	94	240	0
TAP	94	288	5
TAP	94	336	5
TAP	95	0	2
TAP	95	48	2
TAP	95	96	4
HLD	95	144	4	96
STR	95	240	3
SXL	95	240	3	96	192	0
BRK	95	336	6
XTP	96	144	7
XTP	96	192	7
XTP	96	240	7
XTP	96	288	7
STR	97	0	1
SI_	97	0	1	96	48	4
STR	97	0	6
SI_	97	0	6	96	48	3
XTP	97	96	1
XTP	97	96	6
TAP	97	192	2
TAP	97	192	5
STR	97	240	2
SV_	97	240	2	96	24	0
STR	97	240	5
SV_	97	240	5	96	24	7
TTP	97	348	0	C	1	M1
BST	98	96	0
SI_	98	96	0	96	48	4
BST	98	96	7
SI_	98	96	7	96	48	3
BRK	98	192	0
BRK	98	192	7
BRK	98	288	1
BRK	98	288	6
XST	99	0	0
SCR	99	0	0	96	48	3
XST	99	48	4
SCR	99	48	4	96	48	7
XTP	99	96	0
XTP	99	144	4
TAP	99	240	2
TAP	99	288	3
TAP	99	288	5
TAP	99	336	6
BST	100	0	7
SI_	100	0	7	96	48	3
BST	100	48	1
SI_	100	48	1	96	48	5
BRK	100	96	7
BRK	100	144	1
TAP	100	240	6
STR	100	288	0
SCR	100	288	0	96	96	4
TAP	100	288	5
STR	101	0	4
SCR	101	0	4	96	96	0
TAP	101	96	0
TAP	101	192	5
STR	101	288	2
SI_	101	288	2	96	48	7
STR	102	0	5
SI_	102	0	5	96	48	2
STR	102	96	1
SI_	102	96	1	96	48	4
STR	102	192	6
SCL	102	192	6	96	48	3
BRK	102	288	2
TAP	103	0	1
HLD	103	48	1	48
TAP	103	96	3
HLD	103	144	3	48
TAP	103	192	4
HLD	103	240	4	48
TAP	103	288	6
HLD	103	336	6	48
TAP	104	0	1
STR	104	96	2
SI_	104	96	2	96	48	7
STR	104	96	5
SI_	104	96	5	96	48	0
BRK	104	192	2
BRK	104	192	5
XTP	104	288	1
XTP	104	288	6
HLD	105	0	4	48
HLD	105	48	3	48
HLD	105	96	5	48
HLD	105	144	2	48
HLD	105	192	4	48
HLD	105	240	3	48
TAP	105	288	5
TAP	105	336	5
TAP	106	0	2
TAP	106	0	6
TAP	106	48	2
TAP	106	48	6
STR	106	96	2
SCR	106	96	2	96	48	4
STR	106	96	6
SCR	106	96	6	96	48	0
XTP	106	288	3
XTP	106	288	7
STR	107	0	2
SI_	107	0	2	96	48	6
TAP	107	48	2
TAP	107	96	4
TAP	107	144	4
STR	107	192	5
SI_	107	192	5	96	48	1
TAP	107	240	5
TAP	107	288	3
TAP	107	336	3
STR	108	0	2
SI_	108	0	2	96	48	7
TAP	108	48	2
TAP	108	96	4
TAP	108	144	4
STR	108	192	5
SI_	108	192	5	96	48	0
TAP	108	240	5
TAP	108	288	3
TAP	108	336	3
STR	109	0	1
SI_	109	0	1	96	48	4
TAP	109	48	1
TAP	109	96	5
TAP	109	144	5
STR	109	192	6
SXL	109	192	6	96	192	3
TAP	109	240	6
XTP	109	288	0
XTP	109	336	0
XTP	110	48	1
XTP	110	144	2
XTP	110	240	3
XTP	110	288	3
STR	111	0	0
SCR	111	0	0	96	96	3
STR	111	96	3
SV_	111	96	3	96	96	0
TAP	111	192	4
TAP	111	240	4
STR	111	336	7
SI_	111	336	7	96	48	4
TAP	112	48	0
TAP	112	96	0
STR	112	192	1
SCR	112	192	1	96	48	4
STR	112	192	3
SI_	112	192	3	96	48	6
XTP	112	288	1
XTP	112	288	3
STR	113	0	7
SCL	113	0	7	96	96	4
STR	113	96	4
SV_	113	96	4	96	96	7
TAP	113	192	3
TAP	113	240	3
STR	113	336	0
SI_	113	336	0	96	48	3
TAP	114	48	7
TAP	114	96	7
STR	114	192	4
SI_	114	192	4	96	48	1
STR	114	192	6
SCL	114	192	6	96	48	3
XTP	114	288	4
XTP	114	288	6
TAP	115	0	0
TAP	115	48	0
TAP	115	96	7
TAP	115	144	7
TAP	115	192	3
TAP	115	240	2
TAP	115	240	4
STR	115	336	5
SCL	115	336	5	96	48	2
TAP	116	48	1
STR	116	96	1
SCL	116	96	1	96	48	6
STR	116	192	4
SI_	116	192	4	96	48	7
TAP	116	288	0
HLD	117	0	1	384
XTP	117	96	7
XTP	117	144	7
XTP	117	192	7
XTP	117	240	7
XTP	117	288	7
XTP	117	336	7
BST	118	0	6
SI_	118	0	6	96	48	2
STR	118	96	0
SI_	118	96	0	96	48	4
TAP	118	96	6
TAP	118	192	0
XTP	118	192	7
BRK	118	288	1
BRK	118	288	5

T_REC_TAP	306
T_REC_BRK	39
T_REC_XTP	104
T_REC_HLD	32
T_REC_XHO	6
T_REC_STR	116
T_REC_BST	9
T_REC_XST	10
T_REC_TTP	41
T_REC_THO	0
T_REC_SLD	135
T_REC_ALL	798
T_NUM_TAP	577
T_NUM_BRK	48
T_NUM_HLD	38
T_NUM_SLD	135
T_NUM_ALL	798
T_JUDGE_TAP	625
T_JUDGE_HLD	141
T_JUDGE_SLD	135
T_JUDGE_ALL	901
TTM_EACHPAIRS	127
TTM_SCR_TAP	288500
TTM_SCR_BRK	124800
TTM_SCR_HLD	38000
TTM_SCR_SLD	202500
TTM_SCR_ALL	653800
TTM_SCR_S	629550
TTM_SCR_SS	649000
TTM_RAT_ACV	10073

