VERSION	0.00.00	1.03.00
FES_MODE	0
BPM_DEF	212.000	212.000	212.000	212.000
MET_DEF	4	4
RESOLUTION	384
CLK_DEF	384
COMPATIBLE_CODE	MA2

BPM	0	0	212.000
MET	0	0	4	4

TAP	4	0	2
TAP	4	96	2
TAP	4	96	3
TAP	4	192	5
TAP	4	288	4
TAP	4	288	5
TAP	5	0	3
TAP	5	96	3
TAP	5	192	2
TAP	5	192	4
TAP	5	288	2
TAP	5	288	4
TAP	6	0	1
TAP	6	96	0
TAP	6	96	1
TAP	6	192	6
TAP	6	288	6
TAP	6	288	7
TAP	7	0	0
BRK	7	96	1
BRK	7	96	7
TAP	8	0	6
TAP	8	96	5
TAP	8	192	3
TAP	8	192	4
BRK	9	0	2
TAP	9	96	1
TAP	9	96	3
TAP	9	192	5
TAP	9	288	4
TAP	9	288	6
TAP	10	0	2
TAP	10	96	1
TAP	10	96	3
TAP	10	192	0
TAP	10	288	0
TAP	11	0	1
TAP	11	0	5
TAP	11	96	1
TAP	11	96	5
TAP	11	192	2
TAP	11	192	6
TAP	11	288	2
TAP	11	288	6
TAP	12	0	1
TAP	12	0	7
BRK	12	96	0
BRK	12	192	0
BRK	12	288	0
STR	13	0	7
SCL	13	0	7	96	96	4
TAP	13	192	3
TAP	13	288	2
TAP	14	0	1
TAP	14	0	4
TAP	14	96	2
TAP	14	96	5
XTP	14	192	3
XTP	14	192	6
TAP	15	0	1
TAP	15	0	7
TAP	15	96	1
TAP	15	96	7
TAP	15	192	0
TAP	15	192	6
STR	15	288	1
SI_	15	288	1	96	96	4
STR	15	288	5
SI_	15	288	5	96	96	0
TAP	16	192	7
TAP	16	288	7
BRK	17	0	0
BRK	17	0	6
TAP	17	96	0
STR	17	96	6
SI_	17	96	6	96	96	2
TAP	18	0	1
TAP	18	0	3
STR	18	96	1
SI_	18	96	1	96	96	5
TAP	18	96	3
TAP	19	0	6
TAP	19	0	7
STR	19	96	6
SCL	19	96	6	96	96	3
TAP	19	96	7
TAP	20	0	0
TAP	20	0	1
TAP	20	96	0
STR	20	96	1
SCR	20	96	1	96	96	4
TTP	21	0	7	E	0	M1
TTP	21	96	0	C	0	M1
TTP	21	192	3	E	0	M1
TTP	21	288	2	E	0	M1
TTP	21	288	4	E	0	M1
TTP	22	0	1	E	0	M1
TTP	22	96	0	C	0	M1
TTP	22	192	5	E	0	M1
TTP	22	288	4	E	0	M1
TTP	22	288	6	E	0	M1
TTP	23	0	3	E	0	M1
TTP	23	96	1	B	0	M1
TTP	23	96	2	E	0	M1
TTP	23	192	5	E	0	M1
TTP	23	288	6	B	0	M1
TTP	23	288	6	E	0	M1
TTP	24	0	4	E	0	M1
THO	24	96	0	288	C	0	M1
TAP	26	0	5
HLD	26	96	5	960
TAP	26	192	4
TAP	26	288	4
TAP	27	0	3
TAP	27	96	3
TAP	27	192	4
TAP	27	288	4
TAP	28	0	3
TAP	28	96	4
TAP	28	192	4
TAP	28	288	3
TAP	29	0	2
TAP	29	0	4
TAP	29	96	2
TAP	29	96	4
TAP	29	192	1
TAP	29	192	5
TAP	29	288	1
TAP	29	288	5
TAP	30	0	2
HLD	30	96	2	864
TAP	30	192	3
TAP	30	288	3
TAP	31	0	4
TAP	31	96	4
TAP	31	192	3
TAP	31	288	3
TAP	32	0	4
TAP	32	96	3
TAP	32	192	3
STR	32	288	4
SUL	32	288	4	96	192	3
TAP	34	0	2
TAP	34	48	2
TAP	34	96	3
TAP	34	192	1
TAP	34	192	4
TAP	34	288	1
TAP	34	288	4
TAP	35	0	5
TAP	35	48	5
TAP	35	96	4
TAP	35	192	3
TAP	35	192	6
TAP	35	288	3
TAP	35	288	6
TAP	36	0	2
TAP	36	0	4
TAP	36	48	2
TAP	36	48	4
TAP	36	144	3
TAP	36	144	5
TAP	36	192	3
TAP	36	192	5
TAP	36	288	2
TAP	36	288	6
TAP	36	336	2
STR	36	336	6
SCL	36	336	6	96	144	3
TAP	37	192	2
TAP	37	288	2
TAP	38	0	1
TAP	38	48	1
TAP	38	96	0
TAP	38	192	2
TAP	38	192	7
TAP	38	288	2
TAP	38	288	7
TAP	39	0	6
TAP	39	48	6
TAP	39	96	7
TAP	39	192	0
TAP	39	192	5
TAP	39	288	0
TAP	39	288	5
TAP	40	0	1
TAP	40	0	7
TAP	40	48	1
TAP	40	48	7
TAP	40	144	0
TAP	40	144	5
TAP	40	192	0
TAP	40	192	5
TAP	40	288	2
TAP	40	288	7
TAP	40	336	2
STR	40	336	7
SI_	40	336	7	96	144	3
BRK	42	0	2
BRK	42	0	4
HLD	43	0	5	192
HLD	43	192	4	192
TAP	44	0	5
TTP	44	192	6	B	0	M1
TTP	44	192	7	E	0	M1
HLD	45	0	2	192
HLD	45	192	3	192
TAP	46	0	2
TTP	46	192	1	B	0	M1
TTP	46	192	1	E	0	M1
HLD	47	0	4	192
HLD	47	192	3	192
TAP	48	0	4
TTP	48	192	2	B	0	M1
TTP	48	192	2	E	0	M1
TTP	48	192	5	B	0	M1
TTP	48	192	6	E	0	M1
XHO	49	0	1	96
XHO	49	0	3	96
TAP	49	192	1
TAP	49	192	3
XHO	50	0	4	96
XHO	50	0	6	96
TAP	50	192	4
TAP	50	192	6
HLD	51	0	2	96
HLD	51	0	3	96
HLD	51	192	4	96
HLD	51	192	5	96
HLD	52	0	2	96
TAP	52	96	3
TAP	52	144	3
TAP	52	240	1
TAP	52	240	4
TAP	52	288	1
TAP	52	288	4
HLD	53	0	5	96
TAP	53	96	4
TAP	53	144	4
TAP	53	240	3
TAP	53	240	6
TAP	53	288	3
TAP	53	288	6
XTP	54	0	0
XTP	54	0	7
TAP	54	288	2
TAP	54	288	5
BRK	55	0	0
BRK	55	0	1
TAP	55	96	2
TAP	55	96	7
TAP	55	192	6
TAP	55	192	7
TAP	55	288	0
TAP	55	288	5
TAP	56	0	1
TAP	56	0	4
TAP	56	96	2
TAP	56	96	3
TAP	56	192	4
TAP	56	192	5
TAP	56	288	4
TAP	56	288	5
TAP	57	0	6
TAP	57	0	7
TAP	57	96	4
TAP	57	96	5
TAP	57	192	2
TAP	57	192	3
TAP	57	288	0
TAP	57	288	1
BRK	58	0	7
BRK	58	96	7
BRK	58	192	0
BRK	58	288	1
TAP	59	0	2
STR	59	0	7
SCL	59	0	7	96	96	4
STR	59	192	3
SCL	59	192	3	96	96	0
TAP	60	0	7
TAP	60	96	0
TAP	60	96	6
TAP	60	192	1
TAP	60	192	5
TAP	60	288	1
TAP	60	288	5
HLD	61	0	2	96
HLD	61	96	3	96
HLD	61	192	4	96
TAP	61	288	5
TAP	62	0	3
TAP	62	0	6
TAP	62	96	1
TAP	62	96	4
BRK	62	192	0
BRK	62	192	7
TAP	63	0	4
TAP	63	0	6
TAP	63	96	4
TAP	63	96	6
TAP	63	192	1
TAP	63	192	3
TAP	63	288	0
TAP	63	288	7
TAP	64	0	1
TAP	64	0	3
TAP	64	96	1
TAP	64	96	3
TAP	64	192	4
TAP	64	192	6
TAP	64	288	0
TAP	64	288	7
HLD	65	0	6	96
HLD	65	96	5	96
HLD	65	192	4	96
STR	65	288	3
SCL	65	288	3	96	192	6
HLD	67	0	6	96
TAP	67	96	4
TAP	67	192	2
TAP	67	240	2
TAP	67	288	3
TAP	68	0	5
TAP	68	48	5
TAP	68	96	4
TAP	68	192	3
TAP	68	192	5
TAP	68	288	2
TAP	68	288	4
BST	69	0	1
SI_	69	0	1	96	96	6
BST	69	0	5
SI_	69	0	5	96	96	2
TAP	70	0	0
TAP	70	96	0
TAP	70	192	1
TAP	70	288	2
TAP	71	0	2
TAP	71	0	3
TAP	71	96	1
TAP	71	96	4
TAP	71	192	2
TAP	71	288	3
TAP	72	0	4
TAP	72	0	5
TAP	72	96	3
TAP	72	96	6
TAP	72	192	2
TAP	72	192	7
STR	73	0	0
SI_	73	0	0	96	96	3
STR	73	192	7
SI_	73	192	7	96	96	4
STR	74	0	0
SI_	74	0	0	96	96	3
TAP	74	192	7
TAP	74	288	7
TAP	75	0	0
TAP	75	96	0
TAP	75	192	1
STR	75	288	2
SUL	75	288	2	96	192	5
TAP	75	288	3
HLD	77	0	6	96
TAP	77	96	4
HLD	77	192	2	96
TAP	77	288	3
HLD	78	0	4	96
HLD	78	96	5	96
HLD	78	192	6	96
TAP	78	288	7
HLD	79	0	0	96
HLD	79	96	1	96
HLD	79	192	2	96
TAP	79	288	3
TAP	80	0	4
TAP	80	0	5
TAP	80	96	4
TAP	80	96	5
XTP	80	192	2
XTP	80	192	6
TAP	81	0	1
TAP	81	0	3
TAP	81	48	1
HLD	81	48	3	144
TAP	81	192	2
TAP	81	288	2
TAP	82	0	4
TAP	82	0	6
HLD	82	48	4	144
TAP	82	48	6
TAP	82	192	5
TAP	82	288	4
TAP	82	288	5
HLD	83	0	6	96
HLD	83	0	7	96
HLD	83	144	0	96
HLD	83	144	5	96
TAP	83	288	1
TAP	83	288	4
BRK	83	336	1
BRK	83	336	4
XHO	85	0	0	1152
THO	87	0	0	384	C	0	M1
HLD	89	0	7	1152
TAP	89	288	2
TAP	90	0	2
TAP	90	288	1
TAP	91	0	1
TAP	91	288	0
TAP	92	0	0
TAP	92	192	1
TAP	92	192	6
TAP	93	0	5
TAP	93	96	5
TAP	93	192	5
TAP	93	288	5
TAP	94	0	4
TAP	94	96	4
TAP	94	192	4
TAP	94	288	4
TAP	95	0	3
TAP	95	96	3
TAP	95	192	3
TAP	95	288	3
TAP	96	0	2
TAP	96	96	2
TAP	96	192	2
TAP	96	192	3
HLD	97	0	4	96
HLD	97	96	3	96
TAP	97	192	4
TAP	97	240	4
XTP	97	336	2
XTP	97	336	6
TAP	98	96	4
TAP	98	192	3
TAP	98	288	2
TAP	98	288	5
BRK	99	0	6
BRK	99	0	7
TAP	99	96	4
TAP	99	96	5
TAP	99	192	2
TAP	99	192	3
TAP	99	288	0
TAP	99	288	1
TAP	100	0	0
TAP	100	0	1
TAP	100	96	2
TAP	100	96	3
TAP	100	192	4
TAP	100	192	5
TAP	100	288	6
TAP	100	288	7
TAP	101	0	6
TAP	101	0	7
TAP	101	96	1
TAP	101	96	4
TAP	101	192	0
TAP	101	192	1
TAP	101	288	3
TAP	101	288	6
BRK	102	0	7
BRK	102	96	7
BRK	102	192	0
BRK	102	288	1
STR	103	0	2
SCL	103	0	2	96	96	7
TAP	103	0	5
STR	103	192	6
SCL	103	192	6	96	96	3
TAP	104	0	0
TAP	104	96	1
TAP	104	96	7
TAP	104	192	2
TAP	104	192	6
TAP	104	288	2
TAP	104	288	6
HLD	105	0	1	96
HLD	105	96	3	96
HLD	105	192	4	96
STR	105	288	6
SCL	105	288	6	96	192	1
XTP	106	288	0
XTP	106	288	7
TAP	107	0	2
TAP	107	0	5
TAP	107	96	4
TAP	107	96	6
TAP	107	192	0
TAP	107	192	1
TAP	107	288	0
TAP	107	288	1
TAP	108	0	2
TAP	108	0	5
TAP	108	96	1
TAP	108	96	3
TAP	108	192	6
TAP	108	192	7
TAP	108	288	6
TAP	108	288	7
TAP	109	0	4
TAP	109	0	5
TAP	109	96	2
TAP	109	96	3
TAP	109	192	0
TAP	109	192	1
TAP	109	288	6
STR	109	288	7
SSR	109	288	7	96	192	3
XTP	110	288	2
XTP	110	288	4
TAP	111	0	1
TAP	111	0	5
TAP	111	96	2
TAP	111	96	4
TAP	111	192	2
TAP	111	192	6
TAP	111	288	3
TAP	111	288	5
TAP	112	0	2
TAP	112	0	4
STR	112	96	1
SI_	112	96	1	96	96	6
STR	112	96	5
SI_	112	96	5	96	96	2
TAP	113	0	0
TAP	113	0	4
TAP	113	96	0
TAP	113	96	4
TAP	113	192	1
TAP	113	192	3
TAP	113	288	4
TAP	113	288	5
TAP	114	0	3
TAP	114	0	4
STR	114	96	1
SI_	114	96	1	96	96	6
STR	114	96	5
SI_	114	96	5	96	96	2
TAP	115	0	0
TAP	115	0	4
TAP	115	96	0
TAP	115	96	4
TAP	115	192	2
TAP	115	192	3
TAP	115	288	4
TAP	115	288	5
TAP	116	0	3
TAP	116	0	7
TAP	116	96	4
TAP	116	96	6
TAP	116	192	2
TAP	116	192	3
BST	116	288	0
SI_	116	288	0	96	192	4
BST	116	288	7
SI_	116	288	7	96	192	3
TAP	118	0	1
TAP	118	0	6
TAP	118	96	1
TAP	118	96	6
TAP	118	192	2
TAP	118	192	3
BRK	118	288	0
BRK	118	288	5

T_REC_TAP	397
T_REC_BRK	28
T_REC_XTP	12
T_REC_HLD	41
T_REC_XHO	5
T_REC_STR	25
T_REC_BST	4
T_REC_XST	0
T_REC_TTP	25
T_REC_THO	2
T_REC_SLD	29
T_REC_ALL	568
T_NUM_TAP	459
T_NUM_BRK	32
T_NUM_HLD	48
T_NUM_SLD	29
T_NUM_ALL	568
T_JUDGE_TAP	491
T_JUDGE_HLD	198
T_JUDGE_SLD	29
T_JUDGE_ALL	718
TTM_EACHPAIRS	174
TTM_SCR_TAP	229500
TTM_SCR_BRK	83200
TTM_SCR_HLD	48000
TTM_SCR_SLD	43500
TTM_SCR_ALL	404200
TTM_SCR_S	389000
TTM_SCR_SS	401000
TTM_RAT_ACV	10079

