VERSION	0.00.00	1.03.00
FES_MODE	0
BPM_DEF	212.000	212.000	212.000	212.000
MET_DEF	4	4
RESOLUTION	384
CLK_DEF	384
COMPATIBLE_CODE	MA2

BPM	0	0	212.000
MET	0	0	4	4
MET	81	24	4	4

HLD	4	0	2	192
HLD	4	192	3	192
HLD	5	0	4	192
TAP	5	192	5
HLD	6	0	6	192
HLD	6	192	7	192
HLD	7	0	0	192
TAP	7	192	1
TAP	8	0	0
TAP	8	0	7
TAP	8	96	0
TAP	8	96	7
BRK	8	192	1
BRK	8	192	6
TAP	9	0	5
TAP	9	96	5
TAP	9	192	4
TAP	9	192	5
TAP	10	0	2
TAP	10	96	2
TAP	10	192	2
TAP	10	192	3
TAP	11	0	5
TAP	11	96	5
TAP	11	192	4
TAP	11	288	4
TAP	12	0	3
TAP	12	96	3
TAP	12	192	2
TAP	12	192	4
HLD	13	0	0	96
HLD	13	0	1	96
TAP	13	192	0
TAP	13	192	1
HLD	14	0	6	96
HLD	14	0	7	96
TAP	14	192	6
TAP	14	192	7
TAP	15	0	1
TAP	15	96	1
TAP	15	192	0
TAP	15	288	0
TAP	16	0	7
TAP	16	96	7
TAP	16	192	0
TAP	16	192	7
TAP	16	288	1
TAP	16	288	6
BRK	17	0	2
BRK	17	0	5
STR	18	0	1
SCR	18	0	1	96	192	4
STR	19	0	5
SCR	19	0	5	96	192	0
TAP	20	0	1
TAP	20	96	1
TAP	20	192	0
TAP	20	192	7
STR	21	0	1
SI_	21	0	1	96	192	5
STR	22	0	6
SI_	22	0	6	96	192	2
STR	23	0	0
SI_	23	0	0	96	192	3
STR	24	0	4
SI_	24	0	4	96	192	1
SI_	24	0	4	96	192	7
TTP	25	0	0	C	1	L1
XHO	26	0	1	192
TAP	26	192	0
HLD	27	0	6	192
TAP	27	192	7
HLD	28	0	1	192
TAP	28	192	0
TAP	29	0	7
TAP	29	96	7
TAP	29	192	0
TAP	29	192	6
HLD	30	0	5	192
TAP	30	192	4
HLD	31	0	2	192
TAP	31	192	3
HLD	32	0	5	192
TAP	32	192	4
TAP	33	0	3
TAP	33	0	4
XHO	33	96	3	192
XHO	33	96	4	192
TAP	34	0	5
TAP	34	96	5
TAP	34	192	4
TAP	35	0	2
TAP	35	96	2
TAP	35	192	3
HLD	36	0	4	96
HLD	36	0	5	96
HLD	36	192	2	96
HLD	36	192	3	96
TAP	37	0	4
TAP	37	96	4
TAP	37	192	3
TAP	37	192	5
TAP	38	0	6
TAP	38	96	6
TAP	38	192	7
TAP	39	0	1
TAP	39	96	1
TAP	39	192	0
HLD	40	0	6	96
HLD	40	0	7	96
HLD	40	192	0	96
HLD	40	192	1	96
HLD	41	0	2	192
HLD	41	0	7	192
TTP	42	0	0	C	1	L1
TTP	43	0	3	B	0	L1
TTP	44	0	2	B	0	L1
TTP	45	0	1	B	0	L1
TTP	46	0	0	B	0	L1
TTP	47	0	7	B	0	L1
TTP	48	0	6	B	0	L1
TTP	49	0	4	B	0	L1
TTP	49	0	5	B	0	L1
TTP	49	0	5	E	0	L1
TTP	50	0	2	B	0	L1
TTP	50	0	3	B	0	L1
TTP	50	0	3	E	0	L1
XST	51	0	4
SI_	51	0	4	96	192	7
STR	52	0	0
SI_	52	0	0	96	192	3
STR	53	0	4
SCR	53	0	4	96	192	7
TAP	54	0	0
TAP	54	288	0
TAP	54	288	7
TAP	55	0	6
TAP	55	96	6
TAP	55	192	6
TAP	55	192	7
TAP	55	288	6
TAP	55	288	7
TAP	56	0	1
TAP	56	96	1
TAP	56	192	0
TAP	56	192	1
TAP	56	288	0
TAP	56	288	1
TAP	57	0	2
TAP	57	96	2
TAP	57	192	3
TAP	57	288	3
TAP	58	0	4
TAP	58	96	4
TAP	58	192	3
TAP	58	192	5
STR	59	0	6
SCL	59	0	6	96	192	3
STR	59	0	7
SCR	59	0	7	96	192	2
STR	60	0	0
SCL	60	0	0	96	192	5
STR	60	0	1
SCR	60	0	1	96	192	4
TAP	61	0	6
TAP	61	96	6
TAP	61	192	7
TAP	61	288	7
TAP	62	0	0
TAP	62	96	0
XTP	62	192	1
XTP	62	192	6
TAP	63	0	2
TAP	63	96	2
TAP	63	192	2
TAP	63	192	3
TAP	63	288	2
TAP	63	288	3
TAP	64	0	5
TAP	64	96	5
TAP	64	192	4
TAP	64	192	5
TAP	64	288	4
TAP	64	288	5
TAP	65	0	6
TAP	65	96	6
TAP	65	192	7
TAP	65	288	7
TAP	66	0	0
TAP	66	96	0
TAP	66	192	1
TAP	66	192	7
TAP	67	0	2
TAP	67	96	3
TAP	67	192	5
TAP	67	288	4
TAP	68	0	2
TAP	68	96	3
TAP	68	192	3
TAP	68	192	4
TAP	68	288	2
TAP	68	288	5
BRK	69	0	1
BRK	69	0	6
STR	70	0	7
SI_	70	0	7	96	192	3
STR	71	0	2
SI_	71	0	2	96	192	7
STR	72	0	6
SI_	72	0	6	96	192	2
STR	73	0	1
SCR	73	0	1	96	192	4
STR	74	0	5
SCR	74	0	5	96	192	0
STR	75	0	1
SUR	75	0	1	96	192	5
TAP	76	0	6
TAP	76	192	0
TAP	76	192	7
TAP	77	0	6
TAP	77	96	6
TAP	77	192	6
TAP	77	192	7
TAP	78	0	1
TAP	78	96	1
TAP	78	192	0
TAP	78	192	1
TAP	79	0	6
TAP	79	96	6
TAP	79	192	7
TAP	79	288	7
TAP	80	0	0
TAP	80	96	0
TAP	80	192	1
TAP	80	192	7
HLD	81	0	0	96
HLD	81	0	1	96
TAP	81	192	0
TAP	81	192	1
HLD	82	0	6	96
HLD	82	0	7	96
TAP	82	192	6
TAP	82	192	7
XTP	83	0	0
XTP	83	0	7
XTP	83	144	0
XTP	83	144	7
XTP	83	288	0
XTP	83	288	7
TTP	85	0	0	B	0	L1
TTP	86	0	1	B	0	L1
TTP	87	0	2	B	0	L1
TTP	88	0	3	B	0	L1
TTP	89	0	4	B	0	L1
TTP	90	0	5	B	0	L1
TTP	91	0	6	B	0	L1
TTP	92	0	7	B	0	L1
HLD	93	0	1	192
HLD	93	192	0	192
HLD	94	0	7	192
TAP	94	192	6
HLD	95	0	5	192
HLD	95	192	4	192
HLD	96	0	3	192
TAP	96	192	2
TAP	97	0	4
TAP	97	96	4
TAP	97	192	3
TAP	97	288	3
XTP	98	0	2
XTP	98	0	5
TAP	98	288	0
TAP	98	288	7
TAP	99	0	1
TAP	99	96	1
TAP	99	192	0
TAP	99	192	1
TAP	99	288	0
TAP	99	288	1
TAP	100	0	6
TAP	100	96	6
TAP	100	192	6
TAP	100	192	7
TAP	100	288	6
TAP	100	288	7
TAP	101	0	5
TAP	101	96	5
TAP	101	192	4
TAP	101	288	4
TAP	102	0	3
TAP	102	96	3
TAP	102	96	4
TAP	102	192	2
TAP	102	192	5
HLD	103	0	6	96
TAP	103	96	7
TAP	103	192	6
TAP	103	192	7
HLD	104	0	1	96
TAP	104	96	0
TAP	104	192	0
TAP	104	192	1
TAP	105	0	6
TAP	105	96	6
TAP	105	192	7
TAP	105	288	7
TAP	106	0	0
TAP	106	0	7
TAP	106	96	0
TAP	106	96	7
XTP	106	192	1
XTP	106	192	6
TAP	107	0	5
TAP	107	96	5
TAP	107	192	4
TAP	107	192	5
TAP	107	288	4
TAP	107	288	5
TAP	108	0	2
TAP	108	96	2
TAP	108	192	2
TAP	108	192	3
TAP	108	288	2
TAP	108	288	3
TAP	109	0	1
TAP	109	96	0
TAP	109	192	7
TAP	109	288	6
STR	110	0	0
SCR	110	0	0	96	192	3
STR	110	0	7
SCL	110	0	7	96	192	4
STR	111	0	5
SI_	111	0	5	96	192	0
TAP	112	0	1
TAP	112	96	1
TAP	112	192	0
TAP	112	192	1
STR	113	0	2
SI_	113	0	2	96	192	7
TAP	114	0	6
TAP	114	96	6
TAP	114	192	6
TAP	114	192	7
TAP	115	0	1
TAP	115	96	1
TAP	115	192	2
TAP	115	288	2
TAP	116	0	3
TAP	116	0	4
TAP	116	96	2
TAP	116	96	5
TAP	116	192	1
TAP	116	192	6
TAP	116	288	0
TAP	116	288	7
HLD	117	0	1	288
HLD	117	0	6	288
TAP	118	0	0
TAP	118	0	7
TAP	118	96	0
TAP	118	96	7
TAP	118	192	0
TAP	118	192	7
BRK	118	288	1
BRK	118	288	6

T_REC_TAP	235
T_REC_BRK	8
T_REC_XTP	12
T_REC_HLD	39
T_REC_XHO	3
T_REC_STR	22
T_REC_BST	0
T_REC_XST	1
T_REC_TTP	22
T_REC_THO	0
T_REC_SLD	24
T_REC_ALL	366
T_NUM_TAP	292
T_NUM_BRK	8
T_NUM_HLD	42
T_NUM_SLD	24
T_NUM_ALL	366
T_JUDGE_TAP	300
T_JUDGE_HLD	136
T_JUDGE_SLD	24
T_JUDGE_ALL	460
TTM_EACHPAIRS	80
TTM_SCR_TAP	146000
TTM_SCR_BRK	20800
TTM_SCR_HLD	42000
TTM_SCR_SLD	36000
TTM_SCR_ALL	244800
TTM_SCR_S	236700
TTM_SCR_SS	244000
TTM_RAT_ACV	10032

