VERSION	0.00.00	1.03.00
FES_MODE	0
BPM_DEF	212.000	212.000	212.000	212.000
MET_DEF	4	4
RESOLUTION	384
CLK_DEF	384
COMPATIBLE_CODE	MA2

BPM	0	0	212.000
MET	0	0	4	4

TAP	4	0	0
TAP	5	0	0
TAP	6	0	7
TAP	7	0	7
XTP	8	0	0
XTP	8	0	7
TAP	9	0	0
TAP	9	192	0
TAP	10	0	0
TAP	11	0	1
TAP	11	192	1
TAP	12	0	1
TAP	13	0	2
TAP	13	192	2
TAP	14	0	2
TAP	15	0	3
TAP	15	192	3
TAP	16	0	3
TAP	16	0	4
TAP	17	0	4
TAP	17	192	4
TAP	18	0	4
TAP	19	0	5
TAP	19	192	5
TAP	20	0	5
TAP	21	0	6
TAP	21	192	6
TAP	22	0	6
TAP	23	0	7
TAP	23	192	7
TAP	24	0	7
XTP	25	0	0
XTP	25	0	7
HLD	26	0	7	384
HLD	28	0	6	384
HLD	30	0	5	384
TAP	32	0	4
TAP	33	0	3
TAP	33	0	4
TAP	34	0	3
TAP	34	192	3
TAP	35	0	3
HLD	36	0	2	384
TAP	38	0	1
TAP	38	192	1
TAP	39	0	1
HLD	40	0	0	384
HLD	40	0	7	384
XTP	42	0	0
XTP	42	0	7
TTP	43	0	0	B	0	L1
TTP	44	0	1	B	0	L1
TTP	45	0	2	B	0	L1
TTP	46	0	3	B	0	L1
TTP	47	0	4	B	0	L1
TTP	48	0	5	B	0	L1
TTP	49	0	6	B	0	L1
TTP	50	0	7	B	0	L1
THO	51	0	0	768	C	0	L1
XTP	54	0	0
XTP	54	0	7
TAP	55	0	7
TAP	55	192	7
TAP	56	0	6
TAP	56	192	6
TAP	57	0	5
TAP	58	0	4
TAP	58	0	5
TAP	59	0	3
TAP	59	192	3
TAP	60	0	2
TAP	60	192	2
TAP	61	0	1
TAP	62	0	0
TAP	62	0	1
TAP	63	0	0
TAP	63	192	0
TAP	64	0	1
TAP	64	192	1
TAP	65	0	2
TAP	65	192	2
TAP	66	0	3
TAP	66	0	4
TAP	67	0	5
TAP	67	192	5
TAP	68	0	6
TAP	68	192	6
XST	69	0	7
SI_	69	0	7	96	480	4
TAP	72	0	0
STR	73	0	0
SI_	73	0	0	96	480	3
TAP	76	0	7
HLD	77	0	6	384
HLD	77	0	7	384
HLD	79	0	4	384
HLD	79	0	5	384
HLD	81	0	2	384
HLD	81	0	3	384
HLD	83	0	0	384
HLD	83	0	1	384
TTP	85	0	0	B	0	L1
TTP	85	0	1	B	0	L1
TTP	87	0	2	B	0	L1
TTP	87	0	3	B	0	L1
TTP	89	0	4	B	0	L1
TTP	89	0	5	B	0	L1
TTP	91	0	6	B	0	L1
TTP	91	0	7	B	0	L1
TAP	93	0	0
TAP	94	0	0
TAP	94	0	1
TAP	95	0	7
TAP	96	0	6
TAP	96	0	7
TAP	97	0	0
TAP	97	192	0
TAP	98	0	0
TAP	98	0	7
TAP	99	0	0
TAP	99	96	0
TAP	99	192	0
TAP	100	0	0
TAP	100	0	1
TAP	101	0	2
TAP	101	96	2
TAP	101	192	2
TAP	102	0	2
TAP	102	0	3
TAP	103	0	4
TAP	103	96	4
TAP	103	192	4
TAP	104	0	4
TAP	104	0	5
TAP	105	0	6
TAP	105	96	6
TAP	105	192	6
TAP	106	0	6
TAP	106	0	7
TAP	107	0	7
TAP	107	96	7
TAP	107	192	7
TAP	108	0	6
TAP	108	192	6
TAP	109	0	5
TAP	109	96	5
TAP	109	192	5
TAP	110	0	4
TAP	110	192	3
TAP	110	192	4
TAP	111	0	2
TAP	111	96	2
TAP	111	192	2
TAP	112	0	1
TAP	112	192	0
TAP	112	192	1
TAP	113	0	7
TAP	113	96	7
TAP	113	192	7
TAP	114	0	6
TAP	114	192	6
TAP	114	192	7
TAP	115	0	0
TAP	115	96	0
TAP	115	192	0
TAP	116	0	0
TAP	116	0	7
TAP	116	192	0
TAP	116	192	7
BRK	117	0	0
BRK	117	0	7
XHO	118	0	1	288
XHO	118	0	6	288

T_REC_TAP	126
T_REC_BRK	2
T_REC_XTP	8
T_REC_HLD	14
T_REC_XHO	2
T_REC_STR	1
T_REC_BST	0
T_REC_XST	1
T_REC_TTP	16
T_REC_THO	1
T_REC_SLD	2
T_REC_ALL	173
T_NUM_TAP	152
T_NUM_BRK	2
T_NUM_HLD	17
T_NUM_SLD	2
T_NUM_ALL	173
T_JUDGE_TAP	154
T_JUDGE_HLD	140
T_JUDGE_SLD	2
T_JUDGE_ALL	296
TTM_EACHPAIRS	28
TTM_SCR_TAP	76000
TTM_SCR_BRK	5200
TTM_SCR_HLD	17000
TTM_SCR_SLD	3000
TTM_SCR_ALL	101200
TTM_SCR_S	98000
TTM_SCR_SS	101000
TTM_RAT_ACV	10019

