VERSION	0.00.00	1.03.00
FES_MODE	0
BPM_DEF	176.000	176.000	215.000	176.000
MET_DEF	4	4
RESOLUTION	384
CLK_DEF	384
COMPATIBLE_CODE	MA2

BPM	0	0	176.000
BPM	33	0	215.000
BPM	44	0	176.000
MET	0	0	4	4
MET	33	0	4	3
MET	44	96	4	4

HLD	1	0	2	768
TTP	1	336	3	E	0	M1
TTP	2	48	0	C	0	M1
TTP	2	144	7	E	0	M1
TAP	2	288	5
HLD	3	0	5	768
TTP	3	336	1	E	0	M1
TTP	4	48	0	C	0	M1
TTP	4	144	5	E	0	M1
TAP	4	288	3
HLD	5	0	3	768
TTP	5	336	6	E	0	M1
TTP	6	48	0	C	0	M1
TTP	6	144	2	E	0	M1
TAP	6	288	4
HLD	7	0	4	336
TAP	7	336	3
TTP	8	48	2	E	0	M1
TTP	8	96	6	E	0	M1
TTP	8	144	3	E	0	M1
TTP	8	192	5	E	0	M1
TAP	8	240	0
TAP	8	240	7
XTP	8	288	1
XTP	8	288	6
STR	9	0	2
SI_	9	0	2	96	48	4
TAP	9	48	5
TAP	9	96	5
TAP	9	192	6
TAP	9	240	4
TAP	9	288	6
TAP	9	336	2
TAP	10	0	5
TAP	10	48	4
TAP	10	96	5
TAP	10	144	0
TAP	10	192	4
TAP	10	240	2
TAP	10	288	1
TAP	10	288	3
STR	11	0	6
SI_	11	0	6	96	48	4
TAP	11	48	2
TAP	11	96	2
TAP	11	192	1
TAP	11	240	3
TAP	11	288	1
TAP	11	336	5
TAP	12	0	2
TAP	12	48	3
TAP	12	96	2
TAP	12	144	7
TAP	12	192	3
TAP	12	240	5
TAP	12	288	4
TAP	12	288	6
STR	13	0	1
SI_	13	0	1	96	48	3
TAP	13	48	5
TAP	13	96	5
TAP	13	192	6
TAP	13	240	4
TAP	13	288	6
TAP	13	336	2
TAP	14	0	5
TAP	14	48	4
TAP	14	96	5
TAP	14	144	0
TAP	14	192	4
TAP	14	240	2
TAP	14	288	1
TAP	14	288	3
STR	15	0	5
SI_	15	0	5	96	48	3
TAP	15	48	2
TAP	15	96	2
TAP	15	192	1
TAP	15	240	3
TAP	15	288	1
TAP	15	336	5
TAP	16	0	2
TAP	16	48	3
TAP	16	96	2
TAP	16	144	7
TAP	16	192	3
TAP	16	240	5
TAP	16	288	4
TAP	16	288	6
TAP	16	336	3
HLD	17	0	3	192
TAP	17	144	2
HLD	17	192	2	192
TAP	17	336	1
STR	18	0	1
SCL	18	0	1	96	96	6
STR	18	96	6
SCL	18	96	6	96	96	3
TAP	18	192	3
TAP	18	336	7
HLD	19	0	7	96
HLD	19	96	1	96
TAP	19	192	4
TAP	19	240	5
HLD	19	288	6	96
TAP	20	0	4
TAP	20	48	3
HLD	20	96	2	96
STR	20	96	5
SI_	20	96	5	96	48	3
TAP	20	336	4
HLD	21	0	4	192
TAP	21	144	5
HLD	21	192	5	192
TAP	21	336	6
STR	22	0	6
SCR	22	0	6	96	96	1
STR	22	96	1
SCR	22	96	1	96	96	4
TAP	22	192	4
TAP	22	336	0
HLD	23	0	0	96
HLD	23	96	6	96
HLD	23	192	2	96
TAP	23	288	4
TAP	23	336	4
STR	24	0	2
SI_	24	0	2	96	48	4
STR	24	96	6
SI_	24	96	6	96	48	0
STR	24	192	1
SI_	24	192	1	96	48	5
STR	24	288	5
SI_	24	288	5	96	48	1
BRK	25	0	7
TAP	25	96	7
TAP	25	144	4
HLD	25	192	4	96
TAP	25	192	6
TAP	25	288	6
TAP	25	336	2
HLD	26	0	2	96
TAP	26	0	5
STR	26	96	5
SCL	26	96	5	96	48	2
TAP	26	144	0
HLD	26	192	0	96
XTP	26	288	7
TAP	26	336	1
TAP	26	336	6
STR	27	0	2
SCR	27	0	2	96	96	5
TAP	27	0	5
STR	27	96	5
SCR	27	96	5	96	96	0
STR	27	192	0
SCR	27	192	0	96	96	3
TAP	27	288	3
TAP	28	0	5
TAP	28	48	6
STR	28	96	7
SI_	28	96	7	96	48	3
XTP	28	288	5
TAP	28	336	1
HLD	29	0	1	96
TAP	29	0	4
TAP	29	96	4
TAP	29	144	3
HLD	29	192	3	96
TAP	29	192	6
TAP	29	288	6
TAP	29	336	5
TAP	30	0	2
HLD	30	0	5	96
STR	30	96	2
SCR	30	96	2	96	48	5
TAP	30	144	7
HLD	30	192	7	96
XTP	30	288	0
TAP	30	336	5
STR	31	0	3
SI_	31	0	3	96	48	1
STR	31	0	7
SI_	31	0	7	96	48	3
STR	31	192	0
SI_	31	192	0	96	48	4
STR	31	192	4
SI_	31	192	4	96	48	6
TAP	32	0	3
STR	32	0	7
SI_	32	0	7	96	48	3
STR	32	96	0
SI_	32	96	0	96	48	4
STR	32	192	5
SCR	32	192	5	96	96	2
TAP	32	288	3
HLD	33	0	3	144
HLD	33	144	5	96
TAP	33	240	4
TAP	33	288	5
TAP	34	0	4
TAP	34	0	6
TAP	34	96	3
TAP	34	96	5
HLD	34	192	2	144
TAP	34	192	4
HLD	34	336	4	96
TAP	35	48	3
TAP	35	96	4
TAP	35	192	3
TAP	35	192	5
TAP	35	288	2
TAP	35	288	4
HLD	36	0	1	144
TAP	36	0	3
HLD	36	144	3	96
TAP	36	240	2
TAP	36	288	3
TAP	37	0	2
TAP	37	0	4
TAP	37	96	1
TAP	37	96	3
HLD	37	192	0	144
TAP	37	192	4
HLD	37	336	7	96
TAP	38	48	0
TAP	38	96	7
TAP	38	192	1
TAP	38	192	6
TAP	38	288	2
TAP	38	288	5
TAP	39	0	3
HLD	39	0	4	144
HLD	39	144	2	96
TAP	39	240	3
TAP	39	288	2
TAP	40	0	1
TAP	40	0	3
TAP	40	96	2
TAP	40	96	4
TAP	40	192	3
HLD	40	192	5	144
HLD	40	336	3	96
TAP	41	48	4
TAP	41	96	3
TAP	41	192	2
TAP	41	192	4
TAP	41	288	3
TAP	41	288	5
TAP	42	0	4
HLD	42	0	6	144
HLD	42	144	4	96
TAP	42	240	5
TAP	42	288	4
TAP	43	0	3
TAP	43	0	5
TAP	43	96	4
TAP	43	96	6
XTP	43	192	3
HLD	43	192	7	192
XTP	43	288	3
XTP	44	0	3
TAP	44	96	0
TAP	44	96	4
THO	44	192	0	288	C	1	M1
TTP	46	48	7	E	0	M1
TTP	46	144	6	E	0	M1
TTP	46	240	5	E	0	M1
TTP	46	336	4	E	0	M1
TAP	47	48	2
TAP	47	96	2
TAP	47	144	3
TAP	47	192	4
TAP	47	240	5
TAP	47	336	3
TAP	48	0	4
TTP	48	48	1	E	0	M1
TTP	48	144	2	E	0	M1
TTP	48	240	3	E	0	M1
TTP	48	336	4	E	0	M1
TAP	49	48	5
TAP	49	96	5
TAP	49	144	4
TAP	49	192	3
TAP	49	240	2
TAP	49	336	4
TAP	50	0	3
TTP	50	48	7	E	0	M1
TTP	50	144	6	E	0	M1
TTP	50	240	5	E	0	M1
TTP	50	336	4	E	0	M1
TAP	51	48	2
TAP	51	96	2
TAP	51	144	3
TAP	51	192	4
TAP	51	240	5
TAP	51	336	3
TAP	52	0	4
TTP	52	48	1	E	0	M1
TTP	52	144	2	E	0	M1
TTP	52	240	3	E	0	M1
TTP	52	336	4	E	0	M1
TAP	53	48	5
STR	53	96	5
SI_	53	96	5	96	48	0
BRK	53	192	1
TAP	53	288	2
TAP	54	0	2
TTP	54	48	7	E	0	M1
TAP	54	96	2
TTP	54	144	6	E	0	M1
TAP	54	192	2
TTP	54	240	5	E	0	M1
TAP	54	288	2
TTP	54	336	4	E	0	M1
TAP	55	0	2
TTP	55	48	0	E	0	M1
STR	55	96	2
SI_	55	96	2	96	48	4
TAP	55	192	5
TAP	55	288	5
TAP	56	0	5
TTP	56	48	1	E	0	M1
TAP	56	96	5
TTP	56	144	2	E	0	M1
TAP	56	192	5
TTP	56	240	3	E	0	M1
TAP	56	288	5
TTP	56	336	4	E	0	M1
TAP	57	0	5
TTP	57	48	0	E	0	M1
STR	57	96	5
SI_	57	96	5	96	48	2
TAP	57	192	1
TAP	57	288	1
TAP	58	0	1
TTP	58	48	7	E	0	M1
TAP	58	96	1
TTP	58	144	6	E	0	M1
TAP	58	192	1
TTP	58	240	5	E	0	M1
TAP	58	288	1
TTP	58	336	4	E	0	M1
TAP	59	0	1
TTP	59	48	0	E	0	M1
STR	59	96	1
SI_	59	96	1	96	48	5
TAP	59	192	7
STR	59	288	6
SI_	59	288	6	96	48	2
TAP	60	0	0
TAP	60	96	1
TAP	60	144	2
TAP	60	192	3
TAP	60	192	4
TAP	60	240	5
TAP	60	288	6
TAP	60	336	1
TAP	60	336	7
TAP	61	0	2
TAP	61	24	3
TAP	61	48	2
BRK	61	96	0
XHO	61	96	6	336
TAP	61	192	5
TAP	61	240	4
TAP	61	288	3
TAP	61	336	2
TAP	62	0	1
STR	62	48	0
SCR	62	48	0	96	48	3
STR	62	144	5
SCR	62	144	5	96	48	0
TAP	62	192	5
STR	62	240	2
SCR	62	240	2	96	48	5
TAP	62	288	2
STR	62	336	7
SCR	62	336	7	96	48	2
TAP	63	0	7
STR	63	48	4
SI_	63	48	4	96	48	0
HLD	63	144	6	144
TAP	63	288	7
TAP	63	336	0
TAP	63	336	6
TAP	64	0	1
TAP	64	0	5
STR	64	48	2
SCL	64	48	2	96	48	7
TAP	64	48	4
STR	64	144	5
SI_	64	144	5	96	48	2
TAP	64	192	5
STR	64	240	1
SI_	64	240	1	96	48	6
TAP	64	288	1
STR	64	336	4
SUL	64	336	4	96	144	2
TAP	65	0	4
HLD	65	48	0	144
STR	65	336	1
SI_	65	336	1	96	48	3
STR	65	336	3
SI_	65	336	3	96	48	7
STR	66	48	1
SI_	66	48	1	96	48	5
HLD	66	144	6	96
TAP	66	240	4
TAP	66	288	3
TAP	66	336	2
TAP	66	336	5
TAP	67	0	1
TAP	67	0	6
HLD	67	48	0	96
TAP	67	48	7
TAP	67	144	2
STR	67	192	1
SI_	67	192	1	96	48	5
TAP	67	192	3
XTP	67	288	7
TAP	68	0	4
TAP	68	0	6
HLD	68	48	5	48
TAP	68	96	3
HLD	68	144	1	48
TAP	68	192	5
HLD	68	240	7	48
TAP	68	288	5
HLD	68	336	3	48
TAP	69	0	5
XTP	69	48	7
XTP	69	72	0
XST	69	96	7
SCL	69	96	7	96	144	0
TTP	69	192	0	C	1	M1
TTP	69	192	3	B	0	M1
TTP	69	192	4	B	0	M1
BRK	69	192	7
TAP	70	0	2
TAP	70	0	6
HLD	70	48	2	96
TAP	70	48	6
STR	70	144	3
SI_	70	144	3	96	48	7
TAP	70	192	3
STR	70	240	1
SI_	70	240	1	96	48	4
TAP	70	288	1
STR	70	336	5
SI_	70	336	5	96	48	0
TAP	71	0	5
STR	71	48	2
SCL	71	48	2	96	144	5
TAP	71	144	7
HLD	71	192	7	96
TAP	71	336	7
TAP	72	0	0
TAP	72	0	6
HLD	72	48	1	96
TAP	72	48	5
TAP	72	144	3
HLD	72	192	3	96
TAP	72	240	2
TAP	72	288	1
TAP	72	336	0
TAP	73	0	7
TAP	73	48	6
STR	73	96	4
SI_	73	96	4	96	48	1
STR	73	96	5
SI_	73	96	5	96	48	0
XTP	73	192	4
XTP	73	192	5
TAP	73	336	6
TAP	74	0	7
TAP	74	48	0
HLD	74	48	5	96
TAP	74	144	4
TAP	74	192	5
TAP	74	240	3
TAP	74	240	6
TAP	74	288	2
STR	74	336	1
SUR	74	336	1	96	144	4
TAP	75	0	0
HLD	75	48	7	144
TAP	75	336	1
TAP	75	336	6
TAP	76	0	2
TAP	76	0	5
STR	76	48	3
SCL	76	48	3	96	48	0
STR	76	48	4
SCR	76	48	4	96	48	7
XTP	76	144	3
XTP	76	144	4
TAP	76	240	1
TAP	76	240	6
TAP	76	288	2
TAP	76	336	3
TAP	77	0	5
TAP	77	24	4
TAP	77	48	5
XHO	77	96	1	336
BRK	77	96	7
TAP	77	192	2
TAP	77	240	3
TAP	77	288	4
TAP	77	336	5
TAP	78	0	6
STR	78	48	7
SCL	78	48	7	96	48	4
STR	78	144	2
SCL	78	144	2	96	48	7
TAP	78	192	2
STR	78	240	5
SCL	78	240	5	96	48	2
TAP	78	288	5
STR	78	336	0
SCL	78	336	0	96	48	5
TAP	79	0	0
STR	79	48	3
SI_	79	48	3	96	48	7
TAP	79	144	1
HLD	79	192	1	96
TAP	79	288	0
TAP	79	336	1
TAP	79	336	7
TAP	80	0	2
TAP	80	0	6
TAP	80	48	3
STR	80	48	5
SUR	80	48	5	96	48	2
TAP	80	144	1
XHO	80	192	1	96
STR	80	288	3
SUR	80	288	3	96	144	5
TAP	81	0	0
HLD	81	48	0	144
STR	81	336	4
SI_	81	336	4	96	48	0
STR	81	336	6
SI_	81	336	6	96	48	4
STR	82	48	6
SI_	82	48	6	96	48	2
HLD	82	144	1	96
TAP	82	240	3
TAP	82	288	4
TAP	82	336	2
TAP	82	336	5
TAP	83	0	1
TAP	83	0	6
STR	83	48	0
SXL	83	48	0	96	144	0
STR	83	48	7
SXR	83	48	7	96	144	7
TAP	83	336	1
TAP	83	336	6
TAP	84	0	2
TAP	84	0	5
HLD	84	48	3	48
HLD	84	48	4	48
HLD	84	144	6	48
TAP	84	192	4
HLD	84	240	1	48
TAP	84	288	3
HLD	84	336	5	48
TAP	85	0	4
XTP	85	48	0
XTP	85	72	7
XST	85	96	0
SCR	85	96	0	96	144	7
BRK	85	192	0
TTP	85	192	0	C	1	M1
TTP	85	192	3	B	0	M1
TTP	85	192	4	B	0	M1
TAP	86	0	1
TAP	86	0	5
TAP	86	48	1
HLD	86	48	5	96
STR	86	144	4
SI_	86	144	4	96	48	0
TAP	86	192	4
STR	86	240	6
SI_	86	240	6	96	48	3
TAP	86	288	6
STR	86	336	2
SI_	86	336	2	96	48	7
TAP	87	0	2
STR	87	48	5
SCR	87	48	5	96	144	2
TAP	87	144	0
HLD	87	192	0	96
TAP	87	336	0
TAP	88	0	1
TAP	88	0	7
TAP	88	48	2
HLD	88	48	6	96
TAP	88	144	2
HLD	88	192	1	144
TAP	88	192	5
TAP	88	240	4
TAP	88	288	3
STR	88	336	2
SXL	88	336	2	96	192	5
TAP	89	0	0
HLD	89	48	0	144
TAP	89	336	6
TAP	89	336	7
TAP	90	0	0
TAP	90	0	5
TAP	90	48	1
STR	90	48	4
SI_	90	48	4	96	48	7
STR	90	144	3
SI_	90	144	3	96	48	0
TAP	90	240	4
TAP	90	288	5
TAP	90	336	6
STR	91	0	7
SXR	91	0	7	96	192	4
TAP	91	48	7
TAP	91	144	3
HLD	91	192	3	96
XST	91	336	0
SI_	91	336	0	96	48	5
XST	91	336	1
SI_	91	336	1	96	48	4
XTP	92	0	2
XTP	92	0	7
XST	92	144	6
SI_	92	144	6	96	48	3
XST	92	144	7
SI_	92	144	7	96	48	2
XTP	92	192	0
XTP	92	192	5
XST	92	336	3
SUR	92	336	3	96	720	4
XST	92	336	4
SCR	92	336	4	96	720	3
XTP	93	0	2
XTP	93	0	5

T_REC_TAP	333
T_REC_BRK	6
T_REC_XTP	23
T_REC_HLD	65
T_REC_XHO	3
T_REC_STR	73
T_REC_BST	0
T_REC_XST	8
T_REC_TTP	50
T_REC_THO	1
T_REC_SLD	81
T_REC_ALL	643
T_NUM_TAP	487
T_NUM_BRK	6
T_NUM_HLD	69
T_NUM_SLD	81
T_NUM_ALL	643
T_JUDGE_TAP	493
T_JUDGE_HLD	213
T_JUDGE_SLD	81
T_JUDGE_ALL	787
TTM_EACHPAIRS	89
TTM_SCR_TAP	243500
TTM_SCR_BRK	15600
TTM_SCR_HLD	69000
TTM_SCR_SLD	121500
TTM_SCR_ALL	449600
TTM_SCR_S	435550
TTM_SCR_SS	449000
TTM_RAT_ACV	10013

