VERSION	0.00.00	1.03.00
FES_MODE	0
BPM_DEF	176.000	176.000	215.000	176.000
MET_DEF	4	4
RESOLUTION	384
CLK_DEF	384
COMPATIBLE_CODE	MA2

BPM	0	0	176.000
BPM	33	0	215.000
BPM	44	0	176.000
MET	0	0	4	4
MET	33	0	4	3
MET	44	96	4	4

TAP	1	0	5
TAP	1	96	4
HLD	1	192	3	96
TAP	1	192	4
TAP	1	288	5
TAP	1	336	5
TAP	2	48	2
TAP	2	96	2
TAP	2	192	4
TAP	2	288	3
TAP	3	0	2
TAP	3	96	3
TAP	3	192	3
HLD	3	192	4	96
TAP	3	288	2
TAP	3	336	2
TAP	4	48	5
TAP	4	96	5
TAP	4	192	3
TAP	4	288	4
TAP	5	0	5
TAP	5	96	4
HLD	5	192	3	96
TAP	5	192	4
TAP	5	288	5
TAP	5	336	5
TAP	6	48	2
TAP	6	96	2
TAP	6	192	4
TAP	6	288	3
TAP	7	0	2
TAP	7	96	3
TAP	7	192	3
HLD	7	192	4	96
TAP	7	288	2
HLD	7	336	2	288
TAP	8	240	3
TAP	8	288	1
TAP	8	288	4
TAP	9	0	2
TAP	9	48	2
TAP	9	96	4
TAP	9	192	3
HLD	9	192	5	96
TAP	9	288	4
TAP	9	336	4
TAP	10	48	5
TAP	10	96	5
TAP	10	192	2
TAP	10	240	3
TAP	10	288	4
TAP	11	0	5
TAP	11	48	5
TAP	11	96	3
HLD	11	192	2	96
TAP	11	192	4
TAP	11	288	3
TAP	11	336	3
TAP	12	48	2
TAP	12	96	2
TAP	12	192	5
TAP	12	240	4
TAP	12	288	3
TAP	13	0	2
TAP	13	48	2
TAP	13	96	4
TAP	13	192	3
HLD	13	192	5	96
TAP	13	288	4
TAP	13	336	4
TAP	14	48	5
TAP	14	96	5
TAP	14	192	2
TAP	14	240	3
TAP	14	288	4
TAP	15	0	5
TAP	15	48	5
TAP	15	96	3
HLD	15	192	2	96
TAP	15	192	4
TAP	15	288	3
TAP	15	336	3
TAP	16	48	2
TAP	16	96	2
TAP	16	192	3
TAP	16	192	4
TAP	16	288	4
TAP	16	336	3
HLD	17	0	2	1536
TAP	17	0	5
TTP	17	192	4	E	0	M1
TTP	18	0	2	E	0	M1
TTP	18	96	0	C	0	M1
TTP	18	192	6	E	0	M1
TAP	19	0	7
STR	19	96	7
SI_	19	96	7	96	96	3
TTP	20	0	4	E	0	M1
TTP	20	96	5	E	0	M1
TTP	20	192	6	E	0	M1
HLD	21	0	5	1536
TTP	21	192	4	E	0	M1
TTP	22	0	6	E	0	M1
TTP	22	96	0	C	0	M1
TTP	22	192	2	E	0	M1
TAP	23	0	0
STR	23	96	0
SI_	23	96	0	96	96	4
TTP	24	0	4	E	0	M1
TTP	24	96	3	E	0	M1
TTP	24	192	2	E	0	M1
HLD	25	0	2	192
TAP	25	96	3
HLD	25	192	4	192
TAP	25	288	3
HLD	26	0	2	192
TAP	26	96	3
HLD	26	192	5	192
TAP	26	288	4
HLD	27	0	3	192
TAP	27	96	4
HLD	27	192	5	96
STR	27	288	4
SUL	27	288	4	96	240	3
HLD	29	0	6	192
TAP	29	96	4
HLD	29	192	3	192
TAP	29	288	4
HLD	30	0	5	192
TAP	30	96	4
HLD	30	192	2	192
TAP	30	288	3
HLD	31	0	4	192
TAP	31	96	3
HLD	31	192	1	192
TAP	31	288	3
BRK	32	0	7
XTP	32	288	1
XHO	33	0	1	144
TAP	33	144	3
TAP	33	240	3
TAP	33	288	2
XTP	34	0	4
XTP	34	96	5
HLD	34	192	6	144
TAP	34	336	4
TAP	35	48	4
TAP	35	96	5
XTP	35	192	3
XTP	35	288	2
HLD	36	0	1	144
TAP	36	144	3
TAP	36	240	3
TAP	36	288	2
XTP	37	0	4
XTP	37	96	5
HLD	37	192	6	144
TAP	37	336	4
TAP	38	48	4
TAP	38	96	5
XTP	38	192	6
XTP	38	288	0
XTP	38	288	7
HLD	39	0	1	144
TAP	39	0	6
TAP	39	144	3
TAP	39	240	3
TAP	39	288	2
XTP	40	0	4
XTP	40	96	1
XTP	40	96	5
HLD	40	192	6	144
TAP	40	336	4
TAP	41	48	4
TAP	41	96	5
XTP	41	192	3
XTP	41	288	2
XTP	41	288	6
HLD	42	0	1	144
TAP	42	144	3
TAP	42	240	3
TAP	42	288	2
XTP	43	0	4
XTP	43	96	1
XTP	43	96	5
TAP	43	192	1
TAP	43	192	5
TAP	43	288	2
TAP	43	288	6
HLD	44	0	2	96
HLD	44	0	6	96
THO	44	192	0	288	C	1	M1
TAP	47	96	5
TAP	47	192	4
TAP	47	288	3
TAP	48	0	2
STR	48	48	2
SCR	48	48	2	96	96	5
TAP	48	240	6
TAP	48	336	5
TAP	49	48	4
TAP	49	96	4
TAP	49	192	3
TAP	49	288	5
TAP	50	0	6
STR	50	48	6
SCL	50	48	6	96	96	3
TAP	50	240	1
TAP	50	336	2
TAP	51	48	3
TAP	51	96	3
TAP	51	192	4
TAP	51	288	3
TAP	52	0	2
STR	52	48	2
SCR	52	48	2	96	96	5
TAP	52	240	6
TAP	52	336	5
TAP	53	48	4
TAP	53	96	4
BRK	53	192	7
TAP	54	0	5
TAP	54	48	4
TAP	54	48	5
TAP	54	144	3
TAP	54	240	2
TAP	54	240	4
TAP	54	336	1
TAP	55	0	1
TAP	55	0	3
TAP	55	96	7
TAP	55	144	7
TAP	55	192	0
TAP	55	192	6
TAP	55	288	1
HLD	55	336	1	96
TAP	56	48	3
TAP	56	144	4
TAP	56	240	3
TAP	56	240	5
TAP	56	336	6
TAP	57	0	4
TAP	57	0	6
TAP	57	96	0
TAP	57	144	0
TAP	57	192	7
TAP	57	288	6
HLD	57	336	6	96
TAP	58	48	4
TAP	58	144	7
TAP	58	240	0
TAP	58	240	6
TAP	58	336	1
TAP	59	0	1
TAP	59	0	3
TAP	59	96	4
TAP	59	144	4
TAP	59	192	3
TAP	59	192	5
TAP	59	288	1
HLD	59	336	1	96
TAP	60	48	3
TAP	60	144	5
TAP	60	192	5
TAP	60	288	0
TAP	60	288	7
STR	61	0	3
SI_	61	0	3	96	96	0
STR	61	0	4
SI_	61	0	4	96	96	7
TAP	62	0	1
HLD	62	48	1	96
TAP	62	144	0
TAP	62	192	0
HLD	62	288	6	96
TAP	63	0	4
STR	63	48	4
SCL	63	48	4	96	96	1
SCR	63	48	4	96	96	7
XTP	63	336	2
XTP	64	0	2
XTP	64	48	3
TAP	64	144	4
TAP	64	192	4
STR	64	288	3
SCR	64	288	3	96	240	1
TAP	64	288	5
XTP	65	336	4
XTP	65	336	5
XTP	66	48	3
XTP	66	48	6
XTP	66	144	0
XTP	66	144	7
XTP	66	240	1
XTP	66	240	4
XTP	66	288	1
XTP	66	288	4
XST	67	0	2
SCL	67	0	2	96	144	7
XST	67	0	3
SUL	67	0	3	96	144	6
XTP	68	0	6
XTP	68	0	7
XTP	68	48	6
XTP	68	48	7
TAP	68	144	4
TAP	68	144	5
TAP	68	240	2
TAP	68	240	3
TAP	68	336	0
TAP	68	336	1
TAP	69	0	0
TAP	69	0	1
TAP	69	96	2
TAP	69	96	4
BRK	69	192	1
BRK	69	192	5
TAP	70	0	5
HLD	70	48	5	96
TAP	70	144	4
TAP	70	192	4
HLD	70	288	2	96
TAP	71	0	3
STR	71	48	3
SI_	71	48	3	96	96	7
TAP	71	336	0
TAP	72	0	0
HLD	72	48	7	96
HLD	72	144	1	96
TAP	72	240	3
STR	72	288	3
SCL	72	288	3	96	240	5
HLD	73	336	1	96
HLD	74	48	3	96
HLD	74	144	4	96
TAP	74	240	6
TAP	74	288	6
TAP	75	0	0
TAP	75	0	7
TAP	75	96	1
TAP	75	96	3
TAP	75	192	3
TAP	75	192	4
TAP	75	288	4
TAP	75	288	6
TAP	76	0	0
TAP	76	0	7
TAP	76	96	1
TAP	76	96	3
TAP	76	192	3
TAP	76	192	4
TAP	76	288	4
TAP	76	288	6
TAP	77	0	0
TAP	77	0	7
BRK	77	96	0
BRK	77	96	7
TAP	77	192	1
TAP	77	192	6
TAP	77	288	2
TAP	77	288	5
TAP	78	0	6
HLD	78	48	6	96
TAP	78	144	7
TAP	78	192	7
HLD	78	288	1	96
TAP	79	0	3
STR	79	48	3
SCL	79	48	3	96	96	0
SCR	79	48	3	96	96	6
XTP	79	336	5
XTP	80	0	5
XTP	80	48	4
TAP	80	144	3
TAP	80	192	3
TAP	80	288	2
STR	80	288	4
SCR	80	288	4	96	192	1
XTP	81	336	2
XTP	81	336	3
XTP	82	48	1
XTP	82	48	4
XTP	82	144	0
XTP	82	144	5
XTP	82	240	6
XTP	82	240	7
XTP	82	288	6
XTP	82	288	7
XST	83	0	4
SI_	83	0	4	96	96	1
XST	83	0	5
SI_	83	0	5	96	96	0
TAP	83	336	1
TAP	84	0	1
TAP	84	48	0
TAP	84	144	2
TAP	84	144	3
TAP	84	240	4
TAP	84	240	5
TAP	84	336	6
TAP	84	336	7
TAP	85	0	6
TAP	85	0	7
TAP	85	96	3
TAP	85	96	5
BRK	85	192	2
BRK	85	192	6
TAP	86	0	2
HLD	86	48	2	96
TAP	86	144	3
TAP	86	192	3
HLD	86	288	5	96
TAP	87	0	4
STR	87	48	4
SI_	87	48	4	96	96	0
TAP	87	336	7
TAP	88	0	7
HLD	88	48	0	96
HLD	88	144	6	96
TAP	88	240	4
STR	88	288	4
SCR	88	288	4	96	192	1
HLD	89	336	6	96
HLD	90	48	4	96
HLD	90	144	3	96
TAP	90	240	1
TAP	90	288	1
TAP	91	0	0
TAP	91	0	7
TAP	91	96	4
TAP	91	96	6
TAP	91	192	3
TAP	91	192	4
TAP	91	288	1
TAP	91	288	3
TAP	92	0	0
TAP	92	0	7
TAP	92	96	4
TAP	92	96	5
TAP	92	192	0
TAP	92	192	7
TAP	92	288	2
TAP	92	288	3
STR	93	0	0
SCR	93	0	0	96	96	3
STR	93	0	7
SCL	93	0	7	96	96	4

T_REC_TAP	276
T_REC_BRK	8
T_REC_XTP	49
T_REC_HLD	52
T_REC_XHO	1
T_REC_STR	18
T_REC_BST	0
T_REC_XST	4
T_REC_TTP	14
T_REC_THO	1
T_REC_SLD	24
T_REC_ALL	447
T_NUM_TAP	361
T_NUM_BRK	8
T_NUM_HLD	54
T_NUM_SLD	24
T_NUM_ALL	447
T_JUDGE_TAP	369
T_JUDGE_HLD	205
T_JUDGE_SLD	24
T_JUDGE_ALL	598
TTM_EACHPAIRS	79
TTM_SCR_TAP	180500
TTM_SCR_BRK	20800
TTM_SCR_HLD	54000
TTM_SCR_SLD	36000
TTM_SCR_ALL	291300
TTM_SCR_S	281800
TTM_SCR_SS	290500
TTM_RAT_ACV	10027

