VERSION	0.00.00	1.03.00
FES_MODE	0
BPM_DEF	176.000	176.000	215.000	176.000
MET_DEF	4	4
RESOLUTION	384
CLK_DEF	384
COMPATIBLE_CODE	MA2

BPM	0	0	176.000
BPM	33	0	215.000
BPM	44	0	176.000
MET	0	0	4	4
MET	33	0	4	3
MET	44	96	4	4

XTP	8	288	0
XTP	8	288	7
TAP	9	0	6
TAP	9	96	6
TAP	9	192	7
TAP	9	288	7
TAP	10	0	0
TAP	10	96	0
TAP	10	192	1
TAP	10	192	7
TAP	11	0	2
TAP	11	96	2
TAP	11	192	3
TAP	11	288	3
TAP	12	0	4
TAP	12	96	3
TAP	12	192	2
TAP	12	192	5
TAP	13	0	1
TAP	13	96	1
TAP	13	192	0
TAP	13	288	0
TAP	14	0	7
TAP	14	96	7
TAP	14	192	0
TAP	14	192	6
TAP	15	0	5
TAP	15	96	5
TAP	15	192	4
TAP	15	288	4
TAP	16	0	3
TAP	16	0	4
TAP	16	96	3
TAP	16	96	4
BRK	16	192	2
BRK	16	192	5
TTP	17	0	0	B	0	L1
TTP	18	0	1	B	0	L1
TTP	19	0	2	B	0	L1
TTP	20	0	3	B	0	L1
TTP	21	0	4	B	0	L1
TTP	22	0	5	B	0	L1
TTP	23	0	6	B	0	L1
TTP	24	0	0	C	1	L1
TTP	24	0	2	B	0	L1
TTP	24	0	5	B	0	L1
XTP	25	0	1
TAP	25	96	1
TAP	25	192	0
TAP	26	0	6
TAP	26	96	6
TAP	26	192	7
TAP	27	0	1
TAP	27	96	1
TAP	27	192	0
TAP	28	0	7
TAP	28	96	7
TAP	28	192	0
TAP	28	192	6
TAP	29	0	5
TAP	29	96	5
TAP	29	192	4
TAP	30	0	2
TAP	30	96	2
TAP	30	192	3
TAP	31	0	4
TAP	31	96	4
TAP	31	192	3
TAP	31	288	3
TAP	32	0	2
TAP	32	0	5
XHO	33	0	1	288
XHO	33	288	0	288
HLD	34	192	7	288
TAP	35	96	6
HLD	36	0	5	288
HLD	36	288	4	288
HLD	37	192	3	288
TAP	38	96	2
HLD	39	0	1	288
TAP	39	288	0
HLD	40	192	6	288
TAP	41	96	7
HLD	42	0	1	288
TAP	42	288	0
HLD	43	192	0	384
HLD	43	192	7	384
XST	45	96	6
SCL	45	96	6	96	192	3
TAP	46	96	2
TAP	46	288	2
TAP	46	288	3
STR	47	96	2
SCL	47	96	2	96	192	7
TAP	48	96	6
TAP	48	288	6
TAP	48	288	7
STR	49	96	5
SCR	49	96	5	96	192	0
TAP	50	96	1
TAP	50	288	0
TAP	50	288	1
STR	51	96	1
SCR	51	96	1	96	192	4
TAP	52	96	5
TAP	52	288	3
TAP	52	288	4
HLD	53	96	2	96
TAP	53	192	3
TAP	53	288	3
HLD	54	96	5	96
TAP	54	192	4
TAP	54	288	4
HLD	55	96	2	96
TAP	55	192	3
TAP	55	288	3
HLD	56	96	4	96
HLD	56	96	5	96
TAP	56	288	4
TAP	56	288	5
HLD	57	96	6	96
TAP	57	192	7
TAP	57	288	7
HLD	58	96	1	96
TAP	58	192	0
TAP	58	288	0
HLD	59	96	6	96
TAP	59	192	7
TAP	59	288	7
TAP	60	96	0
TAP	60	96	7
TAP	60	192	0
TAP	60	192	7
TAP	60	288	1
TAP	60	288	6
BRK	61	96	2
TAP	61	192	2
TAP	61	288	2
TAP	61	288	3
TAP	62	0	2
TAP	62	0	3
TAP	62	96	1
TAP	62	192	1
TAP	62	288	0
TAP	62	288	1
TAP	63	0	0
TAP	63	0	1
TAP	63	96	6
TAP	63	192	6
TAP	63	288	6
TAP	63	288	7
TAP	64	0	6
TAP	64	0	7
TAP	64	96	5
TAP	64	192	4
TAP	64	288	3
TAP	64	288	5
TAP	65	96	2
TAP	65	192	2
TAP	65	288	2
TAP	65	288	3
TAP	66	96	5
TAP	66	192	5
TAP	66	288	4
TAP	66	288	5
TAP	67	96	3
TAP	67	192	3
TAP	67	288	4
TAP	68	0	4
TAP	68	96	3
TAP	68	96	4
TAP	68	192	3
TAP	68	192	4
XTP	68	288	2
XTP	68	288	5
TAP	69	96	6
TAP	69	192	6
TAP	69	288	6
TAP	69	288	7
TAP	70	0	6
TAP	70	0	7
TAP	70	96	5
TAP	70	192	5
TAP	70	288	4
TAP	70	288	5
TAP	71	0	4
TAP	71	0	5
TAP	71	96	2
TAP	71	192	2
TAP	71	288	2
TAP	71	288	3
TAP	72	0	2
TAP	72	0	3
TAP	72	96	1
TAP	72	192	0
TAP	72	288	1
TAP	72	288	7
TAP	73	96	6
TAP	73	192	6
TAP	73	288	6
TAP	73	288	7
TAP	74	96	1
TAP	74	192	1
TAP	74	288	0
TAP	74	288	1
TAP	75	96	7
TAP	75	192	7
TAP	75	288	0
TAP	76	0	0
TAP	76	96	1
TAP	76	96	6
TAP	76	192	1
TAP	76	192	6
TAP	76	288	2
TAP	76	288	5
TAP	77	0	2
TAP	77	0	5
BST	77	96	3
SCL	77	96	3	96	192	0
BST	77	96	4
SCR	77	96	4	96	192	7
TAP	78	96	6
TAP	78	192	6
TAP	78	192	7
TAP	78	288	1
TAP	79	0	0
TAP	79	0	1
STR	79	96	7
SI_	79	96	7	96	192	3
TAP	80	96	2
TAP	80	192	2
TAP	80	192	3
TAP	80	288	5
TAP	81	0	4
TAP	81	0	5
STR	81	96	3
SI_	81	96	3	96	192	7
TAP	82	96	6
TAP	82	192	6
TAP	82	192	7
TAP	82	288	1
TAP	83	0	0
TAP	83	0	1
STR	83	96	7
SCL	83	96	7	96	192	4
TAP	84	96	3
TAP	84	192	2
TAP	84	288	1
TAP	85	0	0
BST	85	96	7
SCL	85	96	7	96	192	4
TAP	86	96	2
TAP	86	192	2
TAP	86	192	3
TAP	86	288	5
TAP	87	0	4
TAP	87	0	5
TAP	87	96	4
STR	87	96	5
SCR	87	96	5	96	192	0
TAP	88	96	1
TAP	88	192	0
TAP	88	192	1
TAP	88	288	6
TAP	89	0	6
TAP	89	0	7
STR	89	96	6
SUL	89	96	6	96	192	2
TAP	89	96	7
TAP	90	96	1
TAP	90	192	0
TAP	90	192	1
TAP	90	288	6
TAP	91	0	6
TAP	91	0	7
STR	91	96	6
SUL	91	96	6	96	192	2
TAP	91	96	7
TAP	92	96	1
TAP	92	192	0
TAP	92	192	1
TAP	92	288	6
TAP	93	0	6
TAP	93	0	7
TAP	93	96	0
STR	93	96	5
SCR	93	96	5	96	576	3

T_REC_TAP	222
T_REC_BRK	3
T_REC_XTP	5
T_REC_HLD	17
T_REC_XHO	2
T_REC_STR	10
T_REC_BST	3
T_REC_XST	1
T_REC_TTP	10
T_REC_THO	0
T_REC_SLD	14
T_REC_ALL	287
T_NUM_TAP	248
T_NUM_BRK	6
T_NUM_HLD	19
T_NUM_SLD	14
T_NUM_ALL	287
T_JUDGE_TAP	254
T_JUDGE_HLD	86
T_JUDGE_SLD	14
T_JUDGE_ALL	354
TTM_EACHPAIRS	63
TTM_SCR_TAP	124000
TTM_SCR_BRK	15600
TTM_SCR_HLD	19000
TTM_SCR_SLD	21000
TTM_SCR_ALL	179600
TTM_SCR_S	173650
TTM_SCR_SS	179000
TTM_RAT_ACV	10033

