VERSION	0.00.00	1.03.00
FES_MODE	0
BPM_DEF	176.000	176.000	215.000	176.000
MET_DEF	4	4
RESOLUTION	384
CLK_DEF	384
COMPATIBLE_CODE	MA2

BPM	0	0	176.000
BPM	33	0	215.000
BPM	44	0	176.000
MET	0	0	4	4
MET	33	0	4	3
MET	44	96	4	4

TAP	9	0	0
TAP	11	0	7
TAP	13	0	0
TAP	14	0	0
TAP	15	0	7
XTP	16	0	7
TAP	17	0	0
TAP	18	0	1
TAP	19	0	2
TAP	20	0	3
TAP	21	0	4
TAP	22	0	5
TAP	23	0	6
TAP	24	0	7
TAP	25	0	7
TAP	25	192	7
TAP	26	0	7
TAP	27	0	6
TAP	27	192	6
TAP	28	0	6
TAP	29	0	5
TAP	29	192	5
TAP	30	0	5
TAP	31	0	4
TAP	31	192	4
TAP	32	0	3
TAP	32	0	4
XHO	33	0	3	576
HLD	36	0	2	576
HLD	39	0	1	576
HLD	42	0	0	960
HLD	42	0	7	960
XST	45	96	0
SI_	45	96	0	96	480	3
TAP	48	96	7
STR	49	96	7
SI_	49	96	7	96	480	4
TAP	52	96	0
TTP	53	96	0	E	0	L1
TTP	54	96	1	E	0	L1
TTP	55	96	2	E	0	L1
TTP	56	96	3	E	0	L1
TTP	57	96	4	E	0	L1
TTP	58	96	5	E	0	L1
THO	59	96	0	384	C	0	L1
BRK	61	96	7
TAP	61	288	7
TAP	62	96	6
TAP	62	288	6
TAP	63	96	5
TAP	63	288	5
TAP	64	96	4
TAP	64	96	5
TAP	65	96	3
TAP	65	288	3
TAP	66	96	2
TAP	66	288	2
TAP	67	96	1
TAP	67	288	1
TAP	68	96	0
TAP	68	96	1
TAP	69	96	0
TAP	69	288	0
TAP	70	96	1
TAP	70	288	1
TAP	71	96	2
TAP	71	288	2
TAP	72	96	2
TAP	72	96	3
TAP	72	288	2
TAP	72	288	3
TAP	73	96	4
TAP	73	288	4
TAP	74	96	5
TAP	74	288	5
TAP	75	96	6
TAP	75	288	6
TAP	76	96	0
TAP	76	96	7
TAP	76	288	0
TAP	76	288	7
TAP	77	96	7
TAP	77	288	7
TAP	78	96	6
TAP	78	192	6
TAP	78	288	6
TAP	79	96	5
TAP	79	288	5
TAP	80	96	4
TAP	80	192	4
TAP	80	288	3
TAP	80	288	4
TAP	81	96	3
TAP	81	288	3
TAP	82	96	2
TAP	82	192	2
TAP	82	288	2
TAP	83	96	1
TAP	83	288	1
TAP	84	96	0
TAP	84	192	0
TAP	84	288	0
TAP	84	288	7
TAP	85	96	0
TAP	85	192	0
TAP	85	288	0
TAP	86	96	1
TAP	86	192	1
TAP	86	288	1
TAP	87	96	2
TAP	87	192	2
TAP	87	288	2
TAP	88	96	3
TAP	88	192	3
TAP	88	288	3
TAP	88	288	4
TAP	89	96	4
TAP	89	192	4
TAP	89	288	4
TAP	90	96	5
TAP	90	192	5
TAP	90	288	5
TAP	91	96	6
TAP	91	192	6
TAP	91	288	6
TAP	92	96	0
TAP	92	96	7
TAP	92	192	0
TAP	92	192	7
TAP	92	288	0
TAP	92	288	7
XTP	93	96	1
XTP	93	96	6

T_REC_TAP	113
T_REC_BRK	1
T_REC_XTP	3
T_REC_HLD	4
T_REC_XHO	1
T_REC_STR	1
T_REC_BST	0
T_REC_XST	1
T_REC_TTP	6
T_REC_THO	1
T_REC_SLD	2
T_REC_ALL	133
T_NUM_TAP	124
T_NUM_BRK	1
T_NUM_HLD	6
T_NUM_SLD	2
T_NUM_ALL	133
T_JUDGE_TAP	125
T_JUDGE_HLD	84
T_JUDGE_SLD	2
T_JUDGE_ALL	211
TTM_EACHPAIRS	15
TTM_SCR_TAP	62000
TTM_SCR_BRK	2600
TTM_SCR_HLD	6000
TTM_SCR_SLD	3000
TTM_SCR_ALL	73600
TTM_SCR_S	71300
TTM_SCR_SS	73500
TTM_RAT_ACV	10013

