VERSION	0.00.00	1.03.00
FES_MODE	0
BPM_DEF	124.000	124.000	124.000	124.000
MET_DEF	4	4
RESOLUTION	384
CLK_DEF	384
COMPATIBLE_CODE	MA2

BPM	0	0	124.000
MET	0	0	4	4

HLD	1	192	2	96
TTP	1	288	0	C	0	M1
XHO	2	0	0	96
XST	2	0	5
SUL	2	0	5	96	96	3
TAP	2	192	1
TAP	2	264	2
TAP	2	264	4
TAP	2	336	3
TAP	2	336	5
TAP	3	0	4
HLD	3	0	6	96
TAP	3	48	5
HLD	3	96	4	96
TAP	3	144	5
HLD	3	192	6	48
XTP	3	240	7
XTP	3	288	6
XTP	3	288	7
HLD	4	0	0	96
STR	4	0	5
SUL	4	0	5	96	96	3
TAP	4	192	1
TAP	4	264	2
TAP	4	264	4
TAP	4	336	3
TAP	4	336	5
TAP	5	0	4
HLD	5	0	6	96
TAP	5	48	5
HLD	5	96	4	96
TAP	5	144	5
TAP	5	192	6
XTP	5	240	0
XTP	5	240	7
BRK	5	288	1
BRK	5	288	6
STR	6	0	3
SI_	6	0	3	96	48	1
STR	6	96	5
SLR	6	96	5	96	96	3
TAP	6	192	2
TAP	6	288	0
TAP	6	336	0
TAP	7	0	1
TAP	7	0	3
TAP	7	48	2
TAP	7	96	3
TAP	7	96	4
TAP	7	144	5
TAP	7	192	4
TAP	7	192	6
TAP	7	240	5
TAP	7	288	3
TAP	7	288	4
TAP	8	0	2
STR	8	0	5
SI_	8	0	5	96	48	7
STR	8	96	2
SLL	8	96	2	96	96	4
TAP	8	192	0
TAP	8	240	7
TAP	8	288	6
TAP	8	336	5
TAP	9	0	4
TAP	9	0	6
TAP	9	48	5
TAP	9	96	3
TAP	9	96	4
TAP	9	144	2
TAP	9	192	1
TAP	9	192	3
TAP	9	240	2
XTP	9	288	3
XTP	9	288	4
TAP	10	0	5
TAP	10	24	4
TAP	10	48	5
TAP	10	96	3
TAP	10	96	6
TAP	10	144	2
TAP	10	168	3
HLD	10	192	2	96
TTP	10	288	0	C	0	M1
TAP	11	0	6
TAP	11	24	7
TAP	11	48	6
TAP	11	96	0
TAP	11	96	5
TAP	11	144	1
TAP	11	168	0
HLD	11	192	1	96
TTP	11	288	0	C	0	M1
STR	12	0	6
SCL	12	0	6	96	48	4
HLD	12	0	7	96
HLD	12	192	0	96
STR	12	192	1
SCR	12	192	1	96	48	3
TAP	13	0	4
TAP	13	96	3
TAP	13	144	3
TAP	13	192	4
TAP	13	240	4
TTP	13	288	0	C	0	M1
STR	14	0	2
SUR	14	0	2	96	96	4
HLD	14	0	7	96
TAP	14	192	6
TAP	14	264	3
TAP	14	264	5
TAP	14	336	2
TAP	14	336	4
HLD	15	0	1	96
TAP	15	0	3
TAP	15	48	2
HLD	15	96	3	96
TAP	15	144	2
TAP	15	192	1
TTP	15	240	5	B	0	M1
TTP	15	240	6	B	0	M1
TTP	15	240	6	E	0	M1
TTP	15	288	5	B	0	M1
TTP	15	288	6	B	0	M1
TTP	15	288	6	E	0	M1
XST	16	0	2
SUR	16	0	2	96	96	4
XHO	16	0	7	96
TAP	16	192	6
TAP	16	264	3
TAP	16	264	5
TAP	16	336	2
TAP	16	336	4
HLD	17	0	1	96
TAP	17	0	3
TAP	17	48	2
HLD	17	96	3	96
TAP	17	144	2
TAP	17	192	1
TTP	17	240	5	B	0	M1
TTP	17	240	6	B	0	M1
TTP	17	240	6	E	0	M1
TTP	17	288	5	B	0	M1
TTP	17	288	6	B	0	M1
TTP	17	288	6	E	0	M1
STR	18	0	3
SCL	18	0	3	96	48	1
STR	18	96	5
SLR	18	96	5	96	96	3
TAP	18	192	0
TAP	18	288	1
TAP	18	336	2
TAP	19	0	1
TAP	19	0	3
TAP	19	48	2
TAP	19	96	3
TAP	19	96	4
TAP	19	144	5
TAP	19	192	4
TAP	19	192	6
TAP	19	240	5
TAP	19	288	3
TAP	19	288	4
XST	20	0	2
SCR	20	0	2	96	96	5
XTP	20	0	5
XTP	20	48	2
XST	20	96	5
SXR	20	96	5	96	144	2
XTP	20	144	5
XTP	20	192	6
TAP	20	288	7
TAP	21	0	1
TAP	21	0	3
TAP	21	48	2
TAP	21	96	3
TAP	21	96	4
TAP	21	144	5
TAP	21	192	4
TAP	21	192	6
TAP	21	240	5
XTP	21	288	3
XTP	21	288	4
TAP	22	0	2
TAP	22	24	3
TAP	22	48	2
TAP	22	72	3
TAP	22	96	1
TAP	22	144	5
TAP	22	168	4
TAP	22	192	5
TAP	22	216	4
HLD	22	240	6	48
TTP	22	288	0	C	0	M1
TAP	23	0	1
TAP	23	24	0
TAP	23	48	1
TAP	23	72	0
TAP	23	96	2
TAP	23	144	6
TAP	23	168	7
TAP	23	192	6
TAP	23	216	7
HLD	23	240	5	48
TTP	23	288	0	C	0	M1
HLD	24	0	0	96
STR	24	0	1
SUR	24	0	1	96	48	5
STR	24	192	6
SUL	24	192	6	96	48	2
HLD	24	192	7	96
STR	25	0	0
SCR	25	0	0	96	120	7
STR	25	0	7
SUR	25	0	7	96	120	0
TAP	25	288	1
TAP	25	288	5
XHO	26	0	4	48
XHO	26	0	6	48
XHO	26	72	3	48
XHO	26	72	5	48
XTP	26	144	2
XTP	26	144	4
TTP	26	240	2	E	0	M1
TTP	26	288	3	E	0	M1
XHO	27	0	4	48
XHO	27	0	6	48
XHO	27	72	3	48
XHO	27	72	5	48
XTP	27	144	2
XTP	27	144	4
TTP	27	240	2	B	0	M1
TTP	27	288	4	E	0	M1
XTP	27	360	3
XTP	27	360	5
TAP	28	96	2
TAP	28	96	4
HLD	28	168	5	72
TAP	28	240	4
TAP	28	288	3
TAP	28	288	6
TAP	29	0	2
TAP	29	0	4
TAP	29	96	3
TAP	29	96	5
TAP	29	192	2
TAP	29	192	3
TAP	29	240	2
TAP	29	240	3
TAP	29	288	1
TAP	29	288	4
XHO	30	0	3	48
XHO	30	0	5	48
XHO	30	72	2	48
XHO	30	72	4	48
XTP	30	144	1
XTP	30	144	5
TTP	30	240	7	E	0	M1
TTP	30	288	0	E	0	M1
TTP	30	336	1	E	0	M1
XHO	31	0	2	48
XHO	31	0	4	48
XHO	31	72	3	48
XHO	31	72	5	48
XTP	31	144	2
XTP	31	144	6
TTP	31	240	3	E	0	M1
TTP	31	288	4	E	0	M1
TTP	31	336	5	E	0	M1
TAP	32	0	1
TAP	32	48	0
TAP	32	96	7
TAP	32	144	6
TAP	32	192	5
TAP	32	240	4
TAP	32	288	3
XTP	32	336	2
XST	32	336	6
SI_	32	336	6	96	48	2
XST	33	48	0
SSL	33	48	0	96	96	4
XTP	33	144	4
XTP	33	192	5
XTP	33	288	7
TAP	34	0	5
TAP	34	24	4
TAP	34	72	2
TAP	34	96	3
TAP	34	144	1
TAP	34	192	3
TAP	34	192	6
TAP	34	240	5
STR	34	288	2
SXR	34	288	2	96	96	3
STR	34	288	4
SXL	34	288	4	96	96	3
TAP	34	336	1
BRK	35	0	2
BRK	35	0	4
TAP	35	144	5
TAP	35	192	1
TAP	35	192	4
TAP	35	240	2
STR	35	288	3
SXR	35	288	3	96	96	4
STR	35	288	5
SXL	35	288	5	96	96	4
TAP	35	336	6
TAP	36	0	3
TAP	36	0	5
TAP	36	144	2
TAP	36	192	3
TAP	36	192	6
TAP	36	240	5
STR	36	288	2
SXR	36	288	2	96	96	7
STR	36	288	4
SXL	36	288	4	96	96	7
TAP	36	336	1
TAP	37	0	2
TAP	37	0	4
TAP	37	144	6
TAP	37	192	1
TAP	37	192	5
TAP	37	240	2
STR	37	288	3
SCL	37	288	3	96	96	4
STR	37	288	4
SUL	37	288	4	96	96	3
TAP	37	336	5
BRK	38	0	3
BRK	38	0	4
TAP	38	144	2
TAP	38	192	1
TAP	38	192	3
TAP	38	240	2
TAP	38	288	4
TAP	38	288	6
TAP	38	336	5
TAP	39	0	1
TAP	39	0	3
TAP	39	48	2
TAP	39	72	7
TAP	39	120	5
TAP	39	144	0
STR	39	192	2
SI_	39	192	2	96	48	7
STR	39	192	6
SI_	39	192	6	96	48	3
TAP	39	288	2
TAP	39	288	6
TAP	40	0	1
TAP	40	0	3
TAP	40	48	2
TAP	40	96	3
TAP	40	96	4
TAP	40	144	5
TAP	40	192	4
TAP	40	192	6
TAP	40	240	5
TAP	40	288	3
TAP	40	288	4
TAP	40	336	2
STR	41	0	1
SUR	41	0	1	96	48	5
TAP	41	0	3
TAP	41	48	1
TAP	41	96	0
TAP	41	144	7
STR	41	192	6
SUL	41	192	6	96	48	2
TAP	41	240	6
TAP	41	288	7
TAP	41	336	0
XST	42	0	0
SCL	42	0	0	96	48	5
SCR	42	0	0	96	48	3
XST	42	96	0
SF_	42	96	0	96	48	4
XTP	42	192	0
XTP	42	288	2
XTP	42	288	6
TTP	43	0	0	C	1	M1
XTP	43	0	6
TTP	43	96	0	C	1	M1
XTP	43	96	1
TTP	43	192	0	C	1	M1
TAP	43	192	7
TAP	43	240	7
TAP	43	288	0
TTP	43	288	0	C	1	M1
TAP	43	336	0
TTP	44	0	0	C	1	M1
BST	44	0	7
SCL	44	0	7	96	336	0
STR	45	192	7
SSR	45	192	7	96	96	3
HLD	45	288	1	768
TTP	46	96	3	E	0	M1
TTP	46	288	5	E	0	M1
TTP	47	96	0	E	0	M1
TTP	47	192	0	C	0	M1
TTP	47	288	4	E	0	M1
HLD	48	0	5	96
TAP	48	96	4
TAP	48	120	5
TAP	48	168	3
TAP	48	168	6
TAP	48	240	2
TAP	48	264	3
TAP	48	312	1
TAP	48	312	4
HLD	49	0	5	96
TAP	49	96	4
TAP	49	120	5
TAP	49	168	3
TAP	49	168	6
TAP	49	240	2
TAP	49	264	3
TAP	49	312	1
TAP	49	312	4
HLD	50	0	1	96
TAP	50	96	0
TAP	50	120	1
TAP	50	168	2
TAP	50	168	7
TAP	50	240	6
TAP	50	264	7
TAP	50	312	0
TAP	50	312	5
HLD	51	0	1	96
TAP	51	96	0
TAP	51	120	1
TAP	51	168	2
TAP	51	168	7
TAP	51	240	3
TAP	51	240	4
BRK	51	288	2
BRK	51	288	5
STR	52	0	6
SI_	52	0	6	96	48	4
STR	52	96	1
SLR	52	96	1	96	96	7
TAP	52	192	7
TAP	52	288	6
TAP	52	336	5
TAP	53	0	3
TAP	53	0	4
TAP	53	48	2
TAP	53	96	0
TAP	53	96	1
TAP	53	144	7
TAP	53	192	3
TAP	53	192	6
TTP	53	240	5	B	0	M1
TTP	53	240	5	E	0	M1
TTP	53	288	2	B	0	M1
TTP	53	288	3	E	0	M1
XST	54	0	1
SI_	54	0	1	96	48	3
STR	54	96	6
SLL	54	96	6	96	96	0
TAP	54	192	0
TAP	54	240	1
TAP	54	288	2
TAP	54	336	3
TAP	55	0	4
TAP	55	0	5
TAP	55	48	6
TAP	55	96	0
TAP	55	96	7
TAP	55	144	1
TAP	55	192	2
TAP	55	192	4
TTP	55	240	4	B	0	M1
TTP	55	240	4	E	0	M1
TTP	55	288	0	B	0	M1
TTP	55	288	0	E	0	M1
XHO	56	0	5	384
TTP	56	96	0	C	0	M1
TTP	56	288	0	C	0	M1
XHO	57	0	2	384
TTP	57	96	0	C	0	M1
TTP	57	288	0	C	0	M1
XHO	58	0	6	192
TTP	58	96	0	C	0	M1
XHO	58	192	1	192
TTP	58	288	0	C	0	M1
XHO	59	0	6	96
XHO	59	96	7	96
XHO	59	192	0	48
XHO	59	240	1	48
XTP	59	288	2
XTP	59	312	3
XTP	59	336	4
XTP	59	360	5
XST	60	0	6
SCL	60	0	6	96	120	7
STR	60	288	4
SF_	60	288	4	96	48	0
BRK	61	0	4
TTP	61	8	0	C	1	M1
TAP	61	144	6
TAP	61	192	2
TAP	61	192	4
TTP	61	240	1	B	0	M1
TTP	61	240	1	E	0	M1
STR	61	288	3
SXR	61	288	3	96	96	4
STR	61	288	5
SXL	61	288	5	96	96	4
TTP	61	336	6	B	0	M1
TTP	61	336	7	B	0	M1
TAP	62	0	3
TAP	62	0	5
TAP	62	144	1
TAP	62	192	3
TAP	62	192	5
TTP	62	240	5	B	0	M1
TTP	62	240	6	B	0	M1
STR	62	288	2
SXR	62	288	2	96	96	3
STR	62	288	4
SXL	62	288	4	96	96	3
TTP	62	336	0	B	0	M1
TTP	62	336	1	B	0	M1
TAP	63	0	2
TAP	63	0	4
TAP	63	144	6
TAP	63	192	3
TAP	63	192	4
TTP	63	240	1	B	0	M1
TTP	63	240	1	E	0	M1
STR	63	288	3
SCL	63	288	3	96	96	4
STR	63	288	4
SUL	63	288	4	96	96	3
TTP	63	336	6	B	0	M1
TTP	63	336	7	E	0	M1
BRK	64	0	3
BRK	64	0	4
TAP	64	144	2
TAP	64	192	1
TAP	64	192	3
TAP	64	240	2
TAP	64	288	4
TAP	64	288	6
TAP	64	336	5
TAP	65	0	1
TAP	65	0	3
TAP	65	48	2
TAP	65	72	7
TAP	65	120	5
TAP	65	144	0
STR	65	192	2
SI_	65	192	2	96	48	7
STR	65	192	6
SI_	65	192	6	96	48	3
TAP	65	288	2
TAP	65	288	6
TAP	66	0	1
TAP	66	0	3
TAP	66	48	2
TAP	66	96	3
TAP	66	96	4
TAP	66	144	5
TAP	66	192	4
TAP	66	192	6
TAP	66	240	5
TAP	66	288	3
TAP	66	288	4
TAP	66	336	2
STR	67	0	1
SLR	67	0	1	96	72	5
TAP	67	0	3
TAP	67	48	1
TAP	67	96	0
TAP	67	144	7
STR	67	192	6
SLL	67	192	6	96	72	2
TAP	67	240	6
TAP	67	288	7
TAP	67	336	0
XST	68	0	0
SCL	68	0	0	96	48	5
SCR	68	0	0	96	48	3
XST	68	96	0
SF_	68	96	0	96	48	4
XTP	68	192	0
XTP	68	288	2
XTP	68	288	6
HLD	69	0	1	48
HLD	69	0	4	48
HLD	69	96	3	48
HLD	69	96	6	48
TAP	69	192	0
TAP	69	192	7
TAP	69	240	0
TAP	69	240	7
STR	69	288	1
SXL	69	288	1	96	120	7
STR	69	288	6
SXR	69	288	6	96	120	0
TAP	69	336	3
TAP	69	336	4
BRK	70	0	1
BRK	70	0	6
XTP	70	192	0
XTP	70	192	7
TAP	70	288	4
TAP	70	288	6
HLD	70	336	4	96
HLD	70	336	6	96
HLD	71	96	1	48
HLD	71	96	3	48
TTP	71	192	7	E	0	M1
TTP	71	204	6	E	0	M1
TTP	71	216	5	E	0	M1
TTP	71	288	1	E	0	M1
TTP	71	300	2	E	0	M1
TTP	71	312	3	E	0	M1
TTP	72	0	0	E	0	M1
TTP	72	12	0	C	0	M1
TTP	72	24	4	E	0	M1
XTP	72	96	0
XTP	72	96	7
TAP	72	144	6
TAP	72	168	6
HLD	72	192	4	96
TAP	72	240	7
HLD	72	288	5	96
TAP	72	336	7
TAP	73	0	4
XTP	73	96	0
XTP	73	96	7
TAP	73	144	1
TAP	73	168	1
HLD	73	192	3	96
XTP	73	240	0
XHO	73	288	2	48
TAP	73	336	0
TAP	74	0	1
TAP	74	0	7
XTP	74	96	3
XTP	74	96	4
TAP	74	144	6
TAP	74	168	6
HLD	74	192	4	96
TTP	74	240	7	E	0	M1
HLD	74	288	5	96
TTP	74	336	0	E	0	M1
TAP	75	0	4
XTP	75	96	3
XTP	75	96	4
TAP	75	144	1
TAP	75	168	1
HLD	75	192	3	96
TTP	75	240	1	E	0	M1
HLD	75	288	2	96
TTP	75	336	0	E	0	M1
TAP	76	0	3
TAP	76	48	1
TAP	76	48	4
TAP	76	96	3
TAP	76	96	6
TAP	76	144	0
TAP	76	144	7
STR	76	192	6
SCR	76	192	6	96	48	1
STR	76	240	1
SV_	76	240	1	96	48	3
TAP	76	288	3

T_REC_TAP	345
T_REC_BRK	13
T_REC_XTP	50
T_REC_HLD	41
T_REC_XHO	27
T_REC_STR	45
T_REC_BST	1
T_REC_XST	12
T_REC_TTP	78
T_REC_THO	0
T_REC_SLD	60
T_REC_ALL	672
T_NUM_TAP	530
T_NUM_BRK	14
T_NUM_HLD	68
T_NUM_SLD	60
T_NUM_ALL	672
T_JUDGE_TAP	544
T_JUDGE_HLD	138
T_JUDGE_SLD	60
T_JUDGE_ALL	742
TTM_EACHPAIRS	143
TTM_SCR_TAP	265000
TTM_SCR_BRK	36400
TTM_SCR_HLD	68000
TTM_SCR_SLD	90000
TTM_SCR_ALL	459400
TTM_SCR_S	444300
TTM_SCR_SS	458000
TTM_RAT_ACV	10030

