VERSION	0.00.00	1.03.00
FES_MODE	0
BPM_DEF	124.000	124.000	124.000	124.000
MET_DEF	4	4
RESOLUTION	384
CLK_DEF	384
COMPATIBLE_CODE	MA2

BPM	0	0	124.000
MET	0	0	4	4

HLD	1	192	4	96
TAP	1	288	3
XTP	2	0	3
XTP	2	0	4
TAP	2	96	5
TAP	2	192	4
TAP	2	192	6
TAP	2	288	5
TAP	3	0	3
TAP	3	0	4
TAP	3	96	2
TTP	3	192	2	E	0	M1
TTP	3	192	4	E	0	M1
TAP	4	0	3
TAP	4	0	4
TAP	4	96	2
TAP	4	192	1
TAP	4	192	3
TAP	4	288	2
TAP	5	0	3
TAP	5	0	4
TAP	5	96	2
TAP	5	96	5
BRK	5	192	1
BRK	5	192	6
TAP	6	0	4
HLD	6	0	6	384
TAP	6	96	5
TAP	6	192	4
TAP	6	288	3
HLD	7	0	1	96
HLD	7	96	3	96
HLD	7	192	4	96
TAP	7	288	6
HLD	8	0	0	384
TAP	8	0	5
TAP	8	96	3
TAP	8	192	4
TAP	8	288	3
HLD	9	0	6	96
HLD	9	96	4	96
HLD	9	192	3	96
TAP	9	288	1
TAP	10	0	2
TAP	10	48	2
TAP	10	96	3
TAP	10	192	2
TAP	10	192	3
TAP	10	288	1
TAP	10	288	4
TAP	11	0	5
TAP	11	48	5
TAP	11	96	4
TAP	11	192	4
TAP	11	192	5
TAP	11	288	3
TAP	11	288	6
HLD	12	0	2	96
HLD	12	0	4	96
HLD	12	192	3	96
HLD	12	192	5	96
STR	13	0	2
SLL	13	0	2	96	192	4
STR	13	0	6
SLR	13	0	6	96	192	4
XTP	14	0	3
XTP	14	0	5
TAP	14	96	2
TAP	14	192	0
TAP	14	192	1
TAP	14	288	2
TAP	15	0	3
TAP	15	0	4
TAP	15	96	2
TAP	15	96	5
XTP	15	192	7
XTP	15	240	7
XTP	15	288	0
TAP	16	0	2
TAP	16	0	4
TAP	16	96	5
TAP	16	192	6
TAP	16	192	7
TAP	16	288	5
TAP	17	0	3
TAP	17	0	4
TAP	17	96	2
TAP	17	96	5
XTP	17	192	0
XTP	17	240	0
XTP	17	288	7
TAP	18	0	1
HLD	18	0	5	384
TAP	18	96	4
TAP	18	192	3
TAP	18	288	2
HLD	19	0	1	96
HLD	19	96	3	96
HLD	19	192	4	96
HLD	19	288	6	96
STR	20	0	7
SCL	20	0	7	96	96	4
SCR	20	0	7	96	96	2
TAP	20	288	3
TAP	21	0	2
TAP	21	0	4
TAP	21	96	1
TAP	21	96	5
TAP	21	192	2
TAP	21	192	6
TAP	21	288	3
TAP	21	288	5
TAP	22	0	6
TAP	22	48	6
TAP	22	96	4
TAP	22	192	3
TAP	22	192	5
TAP	22	288	2
TAP	22	288	6
TAP	23	0	1
TAP	23	48	1
TAP	23	96	3
TAP	23	192	2
TAP	23	192	4
TAP	23	288	1
TAP	23	288	5
HLD	24	0	3	96
HLD	24	0	6	96
HLD	24	192	1	96
HLD	24	192	4	96
STR	25	0	0
SCR	25	0	0	96	96	3
STR	25	0	7
SCL	25	0	7	96	96	4
TAP	25	288	3
TAP	25	288	4
XST	26	0	2
SCR	26	0	2	96	96	5
TAP	26	240	6
TAP	26	288	6
XST	27	0	2
SCR	27	0	2	96	96	5
TAP	27	240	7
TAP	27	288	7
XHO	28	0	1	96
TAP	28	96	0
HLD	28	192	6	96
TAP	28	288	7
TAP	29	0	6
TAP	29	0	7
TAP	29	96	0
TAP	29	96	1
TAP	29	192	0
TAP	29	192	7
TAP	29	240	0
TAP	29	240	7
TAP	29	288	1
TAP	29	288	6
XST	30	0	5
SCL	30	0	5	96	96	2
TAP	30	240	1
TAP	30	288	1
XST	31	0	5
SCL	31	0	5	96	96	2
TAP	31	240	0
TAP	31	288	0
TAP	32	0	1
TAP	32	0	2
TAP	32	96	3
TAP	32	96	4
TAP	32	192	5
TAP	32	192	6
TAP	32	288	0
TAP	32	288	7
TAP	32	336	0
TAP	32	336	7
TAP	33	48	1
TAP	33	48	4
TAP	33	144	3
TAP	33	144	6
TAP	33	192	3
TAP	33	192	6
TAP	33	288	0
TAP	33	288	7
BRK	34	0	1
BRK	34	0	6
TAP	34	144	3
TAP	34	144	4
TAP	34	192	3
TAP	34	192	4
STR	34	288	6
SI_	34	288	6	96	72	3
STR	34	288	7
SI_	34	288	7	96	72	3
TAP	35	144	2
TAP	35	192	1
TAP	35	192	3
STR	35	288	0
SCR	35	288	0	96	72	3
STR	35	288	7
SCL	35	288	7	96	72	4
TAP	36	144	3
TAP	36	144	4
TAP	36	192	3
TAP	36	192	4
STR	36	288	0
SI_	36	288	0	96	72	4
STR	36	288	1
SI_	36	288	1	96	72	4
TAP	37	144	2
TAP	37	144	6
TAP	37	192	2
TAP	37	192	6
STR	37	288	0
SCR	37	288	0	96	72	3
STR	37	288	4
SCR	37	288	4	96	72	7
TAP	38	144	3
TAP	38	144	7
TAP	38	192	3
TAP	38	192	7
TAP	38	288	1
TAP	38	288	5
TAP	39	0	3
TAP	39	0	6
TAP	39	96	1
TAP	39	96	4
HLD	39	192	0	96
HLD	39	192	7	96
TAP	40	0	2
TAP	40	48	2
TAP	40	96	4
TAP	40	192	3
TAP	40	192	5
TAP	40	288	1
TAP	40	288	6
TAP	41	0	2
TAP	41	0	3
TAP	41	96	0
TAP	41	96	1
TAP	41	192	6
TAP	41	192	7
TAP	41	288	4
TAP	41	288	5
TTP	42	0	1	E	0	M1
TTP	42	0	7	E	0	M1
TTP	42	96	2	E	0	M1
TTP	42	96	6	E	0	M1
TTP	42	192	3	E	0	M1
TTP	42	192	5	E	0	M1
TAP	43	0	4
TAP	43	0	6
TAP	43	96	1
TAP	43	96	3
TAP	43	192	0
TAP	43	192	7
TAP	43	288	3
TAP	43	288	4
BRK	43	336	3
BST	43	336	4
SCR	43	336	4	96	432	3
TAP	45	288	3
TAP	45	288	4
HLD	46	0	2	672
TAP	46	0	5
TAP	46	96	3
TAP	46	288	3
TAP	47	96	4
TAP	47	288	3
HLD	48	0	1	192
TAP	48	0	4
TTP	48	96	1	E	0	M1
TTP	48	192	3	E	0	M1
TAP	49	0	3
HLD	49	0	5	192
TTP	49	96	5	E	0	M1
TTP	49	192	7	E	0	M1
HLD	50	0	2	192
TAP	50	0	4
TTP	50	96	3	E	0	M1
TTP	50	192	1	E	0	M1
TAP	51	0	3
TAP	51	0	4
TAP	51	96	3
TAP	51	96	4
TTP	51	192	0	C	1	M1
XTP	52	0	6
XTP	52	96	6
XTP	52	96	7
TAP	52	192	1
TAP	52	288	0
TAP	52	288	1
TAP	53	0	0
TAP	53	0	7
TAP	53	96	1
TAP	53	96	6
TAP	53	192	0
TAP	53	240	0
TAP	53	288	7
TAP	54	0	2
TAP	54	96	2
TAP	54	96	3
TAP	54	192	5
TAP	54	288	4
TAP	54	288	5
TAP	55	0	3
TAP	55	0	4
TAP	55	96	2
TAP	55	96	5
TAP	55	192	4
TAP	55	240	4
TAP	55	288	3
XHO	56	0	3	384
XTP	56	0	4
XHO	57	0	4	384
XHO	58	0	2	192
XHO	58	192	5	192
XTP	59	0	1
XTP	59	96	6
XTP	59	192	0
XTP	59	240	0
XTP	59	288	7
XTP	59	336	7
XST	60	0	1
SUR	60	0	1	96	192	4
XTP	60	0	6
TTP	61	0	0	C	1	M1
XTP	61	144	0
XTP	61	144	1
XTP	61	192	0
XTP	61	192	1
STR	61	288	3
SCL	61	288	3	96	72	0
STR	61	288	4
SCR	61	288	4	96	72	7
TAP	62	144	0
TAP	62	144	7
TAP	62	192	0
TAP	62	192	7
STR	62	288	2
SI_	62	288	2	96	72	7
STR	62	288	6
SI_	62	288	6	96	72	3
TAP	63	144	1
TAP	63	144	5
TAP	63	192	1
TAP	63	192	5
STR	63	288	3
SF_	63	288	3	96	72	7
TAP	63	288	7
XTP	64	144	1
XTP	64	144	5
XTP	64	192	1
XTP	64	192	5
TAP	64	288	3
TAP	64	288	7
TAP	65	0	4
TAP	65	0	6
TAP	65	96	1
TAP	65	96	3
HLD	65	192	0	96
HLD	65	192	7	96
TAP	66	0	2
TAP	66	48	2
HLD	66	96	3	96
TAP	66	192	0
TAP	66	288	1
TAP	66	288	7
TAP	67	0	2
TAP	67	0	3
TAP	67	96	4
TAP	67	96	5
TAP	67	192	6
TAP	67	192	7
TAP	67	288	0
TAP	67	288	1
TTP	68	0	1	E	0	M1
TTP	68	0	7	E	0	M1
TTP	68	96	2	E	0	M1
TTP	68	96	6	E	0	M1
TTP	68	192	3	E	0	M1
TTP	68	192	5	E	0	M1
TAP	69	0	4
TAP	69	0	5
TAP	69	96	2
TAP	69	96	3
TAP	69	192	0
TAP	69	192	7
TAP	69	240	0
TAP	69	240	7
TAP	69	288	1
TAP	69	288	6
TTP	70	0	0	C	1	M1
TTP	70	0	1	B	0	M1
TTP	70	0	2	B	0	M1
TTP	70	0	5	B	0	M1
TTP	70	0	6	B	0	M1
XTP	70	192	0
XTP	70	192	7
TAP	70	288	3
TAP	70	288	6
HLD	70	336	3	96
HLD	70	336	6	96
HLD	71	96	1	48
HLD	71	96	4	48
TTP	71	192	5	B	0	M1
TTP	71	192	6	B	0	M1
TTP	71	192	6	E	0	M1
TTP	71	288	1	B	0	M1
TTP	71	288	2	B	0	M1
TTP	71	288	2	E	0	M1
TTP	72	0	0	C	0	M1
TAP	72	192	6
TAP	72	240	6
TAP	72	288	7
TAP	73	0	4
HLD	73	0	5	96
XTP	73	96	7
TAP	73	192	2
TAP	73	240	2
TAP	73	288	3
XHO	74	0	1	96
XHO	74	0	4	96
TAP	74	192	5
TAP	74	240	5
TAP	74	288	4
HLD	75	0	6	96
XTP	75	96	7
TAP	75	192	2
TAP	75	240	2
TAP	75	288	3
TAP	76	0	1
TAP	76	0	4
TAP	76	96	3
TAP	76	96	6
HLD	76	192	2	96
HLD	76	192	5	144

T_REC_TAP	269
T_REC_BRK	5
T_REC_XTP	33
T_REC_HLD	40
T_REC_XHO	7
T_REC_STR	18
T_REC_BST	1
T_REC_XST	5
T_REC_TTP	34
T_REC_THO	0
T_REC_SLD	25
T_REC_ALL	437
T_NUM_TAP	359
T_NUM_BRK	6
T_NUM_HLD	47
T_NUM_SLD	25
T_NUM_ALL	437
T_JUDGE_TAP	365
T_JUDGE_HLD	145
T_JUDGE_SLD	25
T_JUDGE_ALL	535
TTM_EACHPAIRS	132
TTM_SCR_TAP	179500
TTM_SCR_BRK	15600
TTM_SCR_HLD	47000
TTM_SCR_SLD	37500
TTM_SCR_ALL	279600
TTM_SCR_S	270650
TTM_SCR_SS	279000
TTM_RAT_ACV	10021

