VERSION	0.00.00	1.03.00
FES_MODE	0
BPM_DEF	124.000	124.000	124.000	124.000
MET_DEF	4	4
RESOLUTION	384
CLK_DEF	384
COMPATIBLE_CODE	MA2

BPM	0	0	124.000
MET	0	0	4	4

XTP	2	0	2
TAP	2	96	2
TAP	2	192	3
TAP	2	288	3
TAP	3	0	4
TAP	3	96	4
TAP	3	192	3
TAP	3	192	5
TAP	4	0	6
TAP	4	96	6
TAP	4	192	7
TAP	4	288	7
TAP	5	0	0
TAP	5	96	0
TAP	5	96	7
XTP	5	192	1
XTP	5	192	6
HLD	6	0	5	192
TAP	6	192	4
HLD	7	0	2	192
TAP	7	192	3
HLD	8	0	5	192
TAP	8	192	4
HLD	9	0	2	96
HLD	9	0	3	96
TAP	9	192	2
TAP	9	192	3
TAP	10	0	1
TAP	10	96	1
TAP	10	192	0
TAP	11	0	6
TAP	11	96	6
TAP	11	192	7
TAP	12	0	1
TAP	12	96	1
TAP	12	192	7
TAP	12	288	7
TAP	13	0	0
TAP	13	96	0
TAP	13	96	7
XTP	13	192	1
XTP	13	192	6
BRK	14	0	5
TAP	14	96	5
TAP	14	192	4
TAP	14	288	4
TAP	15	0	3
TAP	15	96	3
TAP	15	192	2
TAP	15	192	4
TAP	16	0	1
TAP	16	96	1
TAP	16	192	0
TAP	16	288	0
TAP	17	0	7
TAP	17	96	7
XTP	17	192	0
XTP	17	192	6
HLD	18	0	5	96
TAP	18	96	4
TAP	18	192	4
HLD	19	0	2	96
TAP	19	96	3
TAP	19	192	3
HLD	20	0	5	96
TAP	20	96	4
TAP	20	192	4
HLD	21	0	2	96
HLD	21	0	3	96
TAP	21	192	2
TAP	21	192	3
TAP	22	0	1
TAP	22	96	1
TAP	22	192	0
TAP	22	192	1
TAP	23	0	6
TAP	23	96	6
TAP	23	192	6
TAP	23	192	7
TAP	24	0	1
TAP	24	96	1
TAP	24	192	7
TAP	24	288	7
TAP	25	0	0
STR	25	0	7
SI_	25	0	7	96	144	3
XST	26	0	2
SCL	26	0	2	96	144	7
XST	27	0	6
SCL	27	0	6	96	144	3
XHO	28	0	2	192
HLD	28	192	3	192
HLD	29	0	4	192
TAP	29	192	5
XST	30	0	6
SCL	30	0	6	96	144	3
XST	31	0	2
SCL	31	0	2	96	144	7
TAP	32	0	6
TAP	32	96	6
TAP	32	192	5
TAP	32	288	5
TAP	33	0	4
TAP	33	96	4
TAP	33	192	3
TAP	33	192	4
XTP	33	288	2
XTP	33	288	5
TAP	34	192	0
TAP	34	288	7
BRK	35	0	6
TAP	35	96	6
TAP	35	192	6
TAP	35	192	7
TAP	35	288	6
TAP	35	288	7
TAP	36	0	5
TAP	36	96	5
TAP	36	192	4
TAP	36	192	5
TAP	36	288	4
TAP	36	288	5
TAP	37	0	2
TAP	37	96	2
TAP	37	192	2
TAP	37	192	3
TAP	37	288	2
TAP	37	288	3
TAP	38	0	1
TAP	38	96	1
TAP	38	192	0
TAP	38	192	1
TAP	38	288	0
TAP	38	288	7
TAP	39	0	1
TAP	39	0	6
TAP	39	96	2
TAP	39	96	5
HLD	39	192	3	96
HLD	39	192	4	96
TAP	40	0	5
TAP	40	96	4
TAP	40	192	3
TAP	40	288	2
TAP	41	0	3
TAP	41	0	4
TAP	41	96	2
TAP	41	96	5
TAP	41	192	1
TAP	41	192	6
STR	41	288	0
SI_	41	288	0	96	144	3
STR	41	288	7
SI_	41	288	7	96	144	4
XTP	42	288	3
XTP	42	288	4
XHO	43	0	2	96
XHO	43	0	5	96
TTP	43	192	0	C	1	L1
XST	44	0	7
SCL	44	0	7	96	384	2
TAP	45	288	1
XST	46	0	0
SCR	46	0	0	96	384	5
TAP	47	288	6
HLD	48	0	6	192
HLD	48	192	7	192
HLD	49	0	0	192
XTP	49	192	1
HLD	50	0	2	192
HLD	50	192	3	192
HLD	51	0	4	192
TAP	51	192	5
TAP	52	0	6
TAP	52	96	6
TAP	52	192	7
TAP	52	288	7
TAP	53	0	0
TAP	53	96	0
TAP	53	192	1
TAP	53	192	7
TAP	54	0	2
TAP	54	96	2
TAP	54	192	3
TAP	54	288	3
TAP	55	0	4
TAP	55	96	4
XTP	55	192	3
XTP	55	192	5
TTP	56	0	3	B	0	L1
TTP	56	192	2	B	0	L1
TTP	57	0	1	B	0	L1
TTP	57	192	0	B	0	L1
TTP	58	0	7	B	0	L1
TTP	58	192	6	B	0	L1
TTP	59	0	5	B	0	L1
TTP	59	192	4	B	0	L1
TTP	60	0	0	C	0	L1
TAP	60	192	0
TAP	60	192	7
TAP	60	288	0
TAP	60	288	7
BRK	61	0	6
TAP	61	96	6
TAP	61	96	7
TAP	61	192	1
TAP	61	288	0
TAP	61	288	1
TAP	62	0	2
TAP	62	96	2
TAP	62	96	3
TAP	62	192	5
TAP	62	288	4
TAP	62	288	5
TAP	63	0	2
TAP	63	96	2
TAP	63	96	3
TAP	63	192	1
TAP	63	288	0
TAP	63	288	1
TAP	64	0	6
TAP	64	96	6
TAP	64	96	7
TAP	64	192	0
TAP	64	288	0
TAP	64	288	7
TAP	65	0	1
TAP	65	0	6
TAP	65	96	2
TAP	65	96	5
HLD	65	192	3	96
HLD	65	192	4	96
TAP	66	0	2
TAP	66	96	3
TAP	66	192	4
TAP	66	288	5
TAP	67	0	3
TAP	67	0	4
TAP	67	96	2
TAP	67	96	5
TAP	67	192	1
TAP	67	192	6
STR	67	288	0
SCR	67	288	0	96	144	3
STR	67	288	7
SCL	67	288	7	96	144	4
XTP	68	288	3
XTP	68	288	4
TAP	69	0	2
TAP	69	0	5
TAP	69	96	1
TAP	69	96	6
TAP	69	192	0
TAP	69	192	7
BST	69	288	1
SCR	69	288	1	96	240	5
BRK	69	288	6
TAP	71	0	6
TAP	71	96	6
TAP	71	192	6
TAP	71	192	7
TAP	72	0	1
TAP	72	96	1
TAP	72	192	0
TAP	72	192	1
TAP	73	0	2
TAP	73	96	2
TAP	73	192	2
TAP	73	192	3
TAP	74	0	5
TAP	74	96	5
TAP	74	192	4
TAP	74	192	5
TAP	75	0	2
TAP	75	96	2
TAP	75	192	2
TAP	75	192	3
STR	76	0	3
SCL	76	0	3	96	144	0
STR	76	0	4
SCR	76	0	4	96	144	7

T_REC_TAP	198
T_REC_BRK	4
T_REC_XTP	16
T_REC_HLD	22
T_REC_XHO	3
T_REC_STR	7
T_REC_BST	1
T_REC_XST	6
T_REC_TTP	10
T_REC_THO	0
T_REC_SLD	14
T_REC_ALL	281
T_NUM_TAP	237
T_NUM_BRK	5
T_NUM_HLD	25
T_NUM_SLD	14
T_NUM_ALL	281
T_JUDGE_TAP	242
T_JUDGE_HLD	74
T_JUDGE_SLD	14
T_JUDGE_ALL	330
TTM_EACHPAIRS	63
TTM_SCR_TAP	118500
TTM_SCR_BRK	13000
TTM_SCR_HLD	25000
TTM_SCR_SLD	21000
TTM_SCR_ALL	177500
TTM_SCR_S	171700
TTM_SCR_SS	177000
TTM_RAT_ACV	10028

