VERSION	0.00.00	1.03.00
FES_MODE	0
BPM_DEF	166.000	166.000	166.000	166.000
MET_DEF	4	4
RESOLUTION	384
CLK_DEF	384
COMPATIBLE_CODE	MA2

BPM	0	0	166.000
MET	0	0	4	4

HLD	1	0	3	384
TAP	2	0	4
TAP	2	48	4
TAP	2	96	3
HLD	2	144	4	144
HLD	2	192	3	96
BRK	3	0	1
BRK	3	0	6
TAP	3	96	5
TAP	3	144	5
TAP	3	192	3
TAP	3	240	2
TAP	3	288	5
TAP	3	336	4
HLD	4	0	1	96
TAP	4	48	3
TAP	4	96	3
TAP	4	144	2
TAP	4	192	2
TAP	4	192	3
TAP	4	288	3
TAP	4	288	4
TAP	5	0	3
TAP	5	0	5
TAP	5	96	1
TAP	5	144	1
TAP	5	192	4
TAP	5	240	5
TAP	5	288	2
TAP	5	336	3
TAP	6	0	4
TAP	6	0	5
TAP	6	48	6
TAP	6	96	3
TAP	6	96	5
TAP	6	144	6
TAP	6	192	4
TAP	6	192	5
TAP	6	288	3
TAP	6	288	4
TAP	7	0	1
TAP	7	0	6
TAP	7	96	2
TAP	7	144	2
TAP	7	192	4
TAP	7	240	5
TAP	7	288	2
TAP	7	336	3
HLD	8	0	6	96
TAP	8	48	4
TAP	8	96	4
TAP	8	144	5
TAP	8	192	4
TAP	8	192	5
TAP	8	288	3
TAP	8	288	5
TAP	9	0	3
TAP	9	0	4
TAP	9	96	2
TAP	9	144	2
TAP	9	192	6
TAP	9	240	5
TAP	9	288	3
TAP	9	336	2
TAP	10	0	1
TAP	10	0	4
TAP	10	48	5
TAP	10	96	3
TAP	10	96	4
TAP	10	144	5
TAP	10	192	2
TAP	10	192	4
STR	10	288	3
SCL	10	288	3	96	192	0
TAP	11	0	5
TAP	11	96	5
TAP	11	192	5
STR	11	288	0
SUR	11	288	0	96	192	4
TAP	11	288	5
TAP	12	0	5
TAP	12	96	5
TAP	12	192	5
STR	12	288	4
SCL	12	288	4	96	192	0
TAP	12	288	5
TAP	13	0	5
TAP	13	96	5
TAP	13	192	5
TAP	13	288	0
STR	13	288	5
SUL	13	288	5	96	192	3
TAP	14	0	0
XTP	14	96	1
XTP	14	192	1
TAP	14	288	2
STR	14	288	3
SUR	14	288	3	96	192	0
TAP	15	0	2
TAP	15	96	2
XHO	15	192	2	96
STR	15	288	0
SCL	15	288	0	96	192	3
TAP	16	0	2
TAP	16	96	2
TAP	16	192	2
TAP	16	288	2
STR	16	288	3
SUR	16	288	3	96	192	4
TAP	17	0	2
TAP	17	96	2
TAP	17	192	2
TAP	17	288	2
STR	17	288	4
SI_	17	288	4	96	48	2
STR	18	0	0
SI_	18	0	0	96	48	4
STR	18	96	7
SI_	18	96	7	96	48	3
BRK	18	192	2
TAP	19	0	1
TAP	19	48	5
TAP	19	96	1
TAP	19	144	4
TAP	19	192	1
TAP	19	240	4
TAP	19	288	1
TAP	19	336	3
TAP	20	0	2
TTP	20	48	4	B	0	M1
TAP	20	96	2
TTP	20	144	0	B	0	M1
HLD	20	192	2	72
HLD	20	264	3	72
TAP	20	336	4
TAP	21	0	5
TAP	21	48	2
TAP	21	96	5
TAP	21	144	3
TAP	21	192	5
TAP	21	240	3
TAP	21	288	5
TAP	21	336	4
TAP	22	0	6
TTP	22	48	4	B	0	M1
TTP	22	48	4	E	0	M1
TAP	22	96	6
TTP	22	144	0	B	0	M1
TTP	22	144	0	E	0	M1
HLD	22	192	6	72
HLD	22	264	4	72
TAP	22	336	3
TAP	23	0	2
TAP	23	48	4
TAP	23	96	2
TTP	23	144	4	B	0	M1
TTP	23	144	4	E	0	M1
TAP	23	192	2
TAP	23	240	3
TAP	23	288	2
TTP	23	336	0	E	0	M1
TTP	23	336	7	B	0	M1
TAP	24	0	1
TAP	24	48	1
TAP	24	96	3
TAP	24	144	3
HLD	24	192	2	72
TAP	24	192	3
HLD	24	264	3	72
TAP	24	336	4
TAP	25	0	5
TAP	25	48	3
TAP	25	96	5
TTP	25	144	3	B	0	M1
TTP	25	144	4	E	0	M1
TAP	25	192	5
TAP	25	240	4
TAP	25	288	5
TTP	25	336	0	B	0	M1
TTP	25	336	0	E	0	M1
STR	26	0	6
SI_	26	0	6	96	48	2
STR	26	96	2
SI_	26	96	2	96	48	6
STR	26	192	0
SI_	26	192	0	96	48	4
STR	26	288	4
SI_	26	288	4	96	48	0
BRK	27	0	7
TTP	27	1	0	C	1	M1
TTP	28	0	1	B	0	M1
TTP	28	0	1	E	0	M1
TTP	28	0	3	B	0	M1
TTP	28	96	4	B	0	M1
TTP	28	96	6	B	0	M1
TTP	28	96	7	E	0	M1
TAP	28	192	2
TAP	28	192	5
TAP	29	0	3
HLD	29	0	4	96
TAP	29	96	3
TAP	29	192	2
TAP	29	192	3
TAP	29	264	3
TAP	29	264	4
TAP	29	336	4
TAP	29	336	5
HLD	30	0	4	96
TAP	30	0	5
TAP	30	96	5
TAP	30	192	4
TAP	30	192	6
TAP	30	264	3
TAP	30	264	5
TAP	30	336	2
TAP	30	336	4
HLD	31	0	1	96
TAP	31	0	3
TAP	31	96	3
TAP	31	192	1
TAP	31	192	3
TAP	31	264	2
TAP	31	264	4
TAP	31	336	3
TAP	31	336	5
TAP	32	0	4
HLD	32	0	6	96
STR	32	96	5
SLL	32	96	5	96	96	7
STR	32	192	7
SLL	32	192	7	96	96	3
SLR	32	192	7	96	96	3
TAP	33	96	1
TAP	33	96	5
TAP	33	192	4
TAP	33	192	6
TAP	33	264	3
TAP	33	264	5
TAP	33	336	2
TAP	33	336	4
HLD	34	0	1	96
TAP	34	0	3
HLD	34	96	2	96
TAP	34	192	1
TAP	34	264	2
TAP	34	264	3
TAP	34	336	3
TAP	34	336	4
HLD	35	0	4	96
TAP	35	0	5
HLD	35	96	6	96
TAP	35	192	3
TAP	35	264	2
TAP	35	264	5
TAP	35	336	1
TAP	35	336	4
TAP	36	0	1
TAP	36	0	4
TAP	36	96	2
TAP	36	96	3
TAP	36	192	4
TAP	36	192	5
STR	36	288	0
SI_	36	288	0	96	48	4
TAP	36	288	7
BST	37	0	0
SV_	37	0	0	96	48	6
TAP	37	0	5
STR	37	96	0
SI_	37	96	0	96	48	4
TAP	37	96	5
STR	37	192	0
SV_	37	192	0	96	48	2
TAP	37	192	3
TAP	37	288	0
TAP	37	288	3
TAP	38	0	7
HLD	38	48	3	96
STR	38	48	6
SI_	38	48	6	96	48	3
TAP	38	144	6
TAP	38	192	2
TAP	38	240	2
TAP	38	288	1
STR	38	288	7
SI_	38	288	7	96	48	1
SI_	38	288	7	96	48	3
TAP	38	336	6
BRK	39	0	7
TAP	39	96	4
STR	39	144	3
SI_	39	144	3	96	48	7
STR	39	144	5
SI_	39	144	5	96	48	3
TAP	39	240	3
STR	39	240	5
SI_	39	240	5	96	48	1
XTP	39	336	0
XTP	39	336	5
TAP	40	48	2
TAP	40	48	7
TAP	40	96	6
TAP	40	144	5
TAP	40	192	3
TAP	40	192	4
TAP	40	240	2
STR	40	288	0
SI_	40	288	0	96	48	4
TAP	40	288	1
BST	41	0	0
SV_	41	0	0	96	48	6
TAP	41	0	5
STR	41	96	0
SI_	41	96	0	96	48	4
TAP	41	96	5
STR	41	192	0
SV_	41	192	0	96	48	2
TAP	41	192	3
TAP	41	288	0
TAP	41	288	3
TAP	42	0	7
HLD	42	48	3	96
STR	42	48	6
SV_	42	48	6	96	48	3
TAP	42	144	6
TAP	42	192	2
TAP	42	240	2
TAP	42	288	1
STR	42	288	7
SI_	42	288	7	96	48	3
SCR	42	288	7	96	48	1
TAP	42	336	6
BRK	43	0	7
TAP	43	96	4
STR	43	144	3
SI_	43	144	3	96	48	7
STR	43	144	5
SCL	43	144	5	96	48	3
TAP	43	240	3
TAP	43	240	5
HLD	43	336	1	144
XHO	43	336	5	96
TAP	44	96	5
STR	44	192	0
SCR	44	192	0	96	48	3
STR	44	192	4
SCR	44	192	4	96	48	7
STR	44	288	0
SI_	44	288	0	96	48	5
STR	44	288	4
SV_	44	288	4	96	48	1
BRK	45	0	0
BRK	45	0	4
TAP	46	0	1
TAP	46	0	6
TAP	46	48	1
TAP	46	48	6
TAP	46	96	1
TAP	46	96	6
TAP	46	144	1
TAP	46	144	6
TAP	46	192	3
TAP	46	192	4
STR	46	288	0
SV_	46	288	0	96	48	3
STR	46	288	7
SI_	46	288	7	96	48	4
BRK	47	0	0
BRK	47	0	7
TAP	47	192	1
TAP	47	192	4
TAP	47	240	2
TAP	47	288	2
TAP	47	288	6
TAP	47	336	5
TAP	48	0	3
HLD	48	0	5	96
TAP	48	48	4
TAP	48	96	4
TAP	48	144	6
TAP	48	192	3
TAP	48	192	7
TAP	48	288	4
TAP	48	288	6
TAP	49	0	1
HLD	49	0	5	96
TAP	49	96	4
TAP	49	144	4
TAP	49	192	6
TAP	49	240	5
TAP	49	288	3
TAP	49	336	2
TAP	50	0	1
TAP	50	0	4
TAP	50	48	5
TAP	50	96	3
TAP	50	96	4
TAP	50	144	5
TAP	50	192	2
TAP	50	192	4
TAP	50	288	1
TAP	50	288	5
TAP	51	0	2
TAP	51	0	6
TAP	51	96	3
TAP	51	96	5
TAP	51	144	6
TAP	51	192	1
TAP	51	240	1
TAP	51	288	5
TAP	51	336	4
HLD	52	0	2	96
TAP	52	48	3
TAP	52	96	3
TAP	52	144	1
TAP	52	192	0
TAP	52	192	4
TAP	52	288	1
TAP	52	288	3
HLD	53	0	2	96
TAP	53	0	6
TAP	53	96	3
TAP	53	144	3
TAP	53	192	1
TAP	53	240	2
TAP	53	288	7
TAP	53	336	6
TAP	54	0	3
TAP	54	0	5
TAP	54	48	6
TAP	54	96	4
TAP	54	96	5
TAP	54	144	6
TAP	54	192	0
TAP	54	192	5
HLD	55	0	1	48
HLD	55	48	3	48
HLD	55	96	2	48
HLD	55	144	3	48
HLD	55	192	1	48
TAP	55	240	2
HLD	55	288	1	96
TAP	55	288	3
TAP	56	0	3
TAP	56	24	2
TAP	56	72	5
STR	56	96	4
SXR	56	96	4	96	144	4
TAP	56	144	6
XTP	56	192	7
XTP	56	288	7
TAP	57	0	5
TAP	57	48	5
TAP	57	96	4
TAP	57	96	6
TAP	57	144	5
TAP	57	192	4
TAP	57	240	5
HLD	57	288	6	96
TAP	58	0	4
TAP	58	24	5
TAP	58	72	2
STR	58	96	3
SXL	58	96	3	96	144	3
TAP	58	144	1
XTP	58	192	0
XTP	58	288	0
HLD	59	0	1	48
HLD	59	48	2	48
HLD	59	96	3	48
HLD	59	144	2	48
BRK	59	192	1
TAP	59	240	3
HLD	59	288	2	96
TAP	60	0	0
TAP	60	24	1
TAP	60	72	6
STR	60	96	7
SXL	60	96	7	96	144	7
TAP	60	144	5
XTP	60	192	4
XTP	60	288	4
TAP	61	0	6
TAP	61	48	6
TAP	61	96	3
TAP	61	96	5
XTP	61	144	2
TAP	61	144	4
TAP	61	192	1
XTP	61	240	0
TAP	61	240	6
TAP	61	288	0
XTP	61	288	6
TAP	62	0	2
TAP	62	24	3
TAP	62	72	5
TAP	62	96	4
TAP	62	144	3
TAP	62	144	4
TAP	62	192	2
TAP	62	192	5
TAP	62	240	1
TAP	62	240	6
TAP	62	288	0
TAP	62	288	7
TAP	62	336	1
TAP	62	336	6
TTP	63	0	3	B	0	M1
TTP	63	0	3	E	0	M1
TTP	63	0	4	B	0	M1
TTP	63	0	5	E	0	M1
TAP	63	96	1
TAP	63	96	6
TAP	63	192	2
TAP	63	192	3
TAP	63	264	3
TAP	63	264	4
TAP	63	336	4
TAP	63	336	5
TAP	64	0	4
HLD	64	0	5	96
TAP	64	96	4
TAP	64	192	4
TAP	64	192	6
TAP	64	264	3
TAP	64	264	5
TAP	64	336	2
TAP	64	336	4
HLD	65	0	1	96
TAP	65	0	3
TAP	65	96	2
TAP	65	192	1
TAP	65	192	3
TAP	65	264	2
TAP	65	264	4
TAP	65	336	3
TAP	65	336	5
TAP	66	0	4
HLD	66	0	6	96
STR	66	96	7
SLR	66	96	7	96	96	5
STR	66	192	5
SLL	66	192	5	96	96	1
SLR	66	192	5	96	96	1
XTP	67	96	3
XTP	67	96	7
TAP	67	192	4
TAP	67	192	6
TAP	67	264	3
TAP	67	264	5
TAP	67	336	2
TAP	67	336	4
HLD	68	0	1	96
TAP	68	0	3
TAP	68	96	2
TAP	68	192	2
TAP	68	192	3
TAP	68	264	3
TAP	68	264	4
TAP	68	336	4
TAP	68	336	5
TAP	69	0	5
HLD	69	0	6	96
TAP	69	96	7
TAP	69	192	0
TAP	69	192	5
TAP	69	264	1
TAP	69	264	6
TAP	69	336	2
TAP	69	336	7
TAP	70	0	2
TAP	70	0	7
TAP	70	96	4
TAP	70	96	5
TAP	70	192	2
TAP	70	192	3
STR	70	288	0
SI_	70	288	0	96	48	4
TAP	70	288	7
BST	71	0	0
SV_	71	0	0	96	48	6
TAP	71	0	5
STR	71	96	0
SI_	71	96	0	96	48	4
TAP	71	96	5
STR	71	192	0
SV_	71	192	0	96	48	2
TAP	71	192	3
TAP	71	288	0
TAP	71	288	3
TAP	72	0	7
HLD	72	48	3	96
STR	72	48	6
SI_	72	48	6	96	48	3
TAP	72	144	6
TAP	72	192	2
TAP	72	240	1
TAP	72	288	0
STR	72	288	7
SI_	72	288	7	96	48	2
SI_	72	288	7	96	48	3
TAP	72	336	6
BRK	73	0	7
TAP	73	96	4
TAP	73	96	5
STR	73	144	3
SI_	73	144	3	96	48	7
STR	73	144	6
SV_	73	144	6	96	48	3
TAP	73	240	3
STR	73	240	6
SI_	73	240	6	96	48	2
XTP	73	336	0
XTP	73	336	6
TAP	74	48	1
TAP	74	96	0
TAP	74	144	7
TAP	74	192	2
TAP	74	192	6
TAP	74	240	5
STR	74	288	0
SI_	74	288	0	96	48	4
TAP	74	288	4
BST	75	0	0
SV_	75	0	0	96	48	6
TAP	75	0	5
STR	75	96	0
SI_	75	96	0	96	48	4
TAP	75	96	5
STR	75	192	0
SV_	75	192	0	96	48	2
TAP	75	192	3
TAP	75	288	0
TAP	75	288	3
TAP	76	0	7
HLD	76	48	3	96
STR	76	48	6
SV_	76	48	6	96	48	3
TAP	76	144	6
TAP	76	192	2
TAP	76	240	1
TAP	76	288	0
STR	76	288	7
SI_	76	288	7	96	48	3
SCR	76	288	7	96	48	2
TAP	76	336	6
BRK	77	0	7
TAP	77	96	4
TAP	77	96	5
STR	77	144	3
SI_	77	144	3	96	48	7
STR	77	144	6
SCL	77	144	6	96	48	3
TAP	77	240	3
TAP	77	240	6
HLD	77	336	1	144
XHO	77	336	5	96
TAP	78	96	5
STR	78	192	3
SCL	78	192	3	96	48	0
STR	78	192	7
SCL	78	192	7	96	48	4
STR	78	288	3
SI_	78	288	3	96	48	6
STR	78	288	7
SV_	78	288	7	96	48	2
BRK	79	0	3
BRK	79	0	7
XTP	80	0	1
BRK	80	0	5
BRK	80	48	1
XTP	80	48	5
XTP	80	96	2
BRK	80	96	6
BRK	80	144	2
XTP	80	144	6
TAP	80	192	3
TAP	80	192	7
STR	80	288	2
SV_	80	288	2	96	48	7
STR	80	288	6
SI_	80	288	6	96	48	3
BRK	81	0	2
BRK	81	0	6
TAP	81	192	3
TAP	81	192	5
TAP	81	240	5
TAP	81	288	3
TAP	81	336	2
STR	82	0	1
SI_	82	0	1	96	48	7
TAP	82	48	1
TAP	82	96	7
TAP	82	144	6
STR	82	192	5
SCL	82	192	5	96	48	2
TAP	82	288	2
TAP	83	0	1
TAP	83	0	7
STR	83	96	2
SI_	83	96	2	96	48	4
TAP	83	144	2
STR	83	192	5
SI_	83	192	5	96	48	1
TAP	83	240	5
TAP	83	288	1
TAP	83	336	2
TAP	84	0	3
TAP	84	0	4
TAP	84	48	5
TAP	84	96	2
TAP	84	96	6
TAP	84	144	1
STR	84	192	0
SCR	84	192	0	96	48	3
STR	84	192	4
SCR	84	192	4	96	48	7
STR	84	288	0
SI_	84	288	0	96	48	5
STR	84	288	4
SV_	84	288	4	96	48	1
BRK	85	0	0
BRK	85	0	4
STR	85	192	2
SI_	85	192	2	96	48	4
TAP	85	240	2
TAP	85	288	4
TAP	85	336	5
STR	86	0	6
SI_	86	0	6	96	48	0
TAP	86	48	6
STR	86	96	1
SI_	86	96	1	96	48	5
TAP	86	144	1
TAP	86	192	5
TAP	86	288	3
TAP	86	288	6
TAP	87	0	1
TAP	87	0	5
STR	87	96	7
SI_	87	96	7	96	48	3
TAP	87	144	7
STR	87	192	2
SI_	87	192	2	96	48	6
TAP	87	240	2
TAP	87	288	6
TAP	87	336	5
TAP	88	0	3
TAP	88	0	4
TAP	88	48	2
TAP	88	96	1
TAP	88	96	5
TAP	88	144	6
TAP	88	192	0
TAP	88	192	7
TAP	88	240	1
TAP	88	288	2
TAP	88	288	4
TAP	88	336	3
HLD	89	0	4	288
HLD	89	0	5	336
HLD	89	336	3	336
HLD	90	0	4	336
HLD	90	336	2	384
HLD	91	0	3	288
HLD	91	336	4	240
HLD	92	0	3	240
TTP	92	288	4	B	0	M1
TTP	92	336	3	B	0	M1

T_REC_TAP	475
T_REC_BRK	23
T_REC_XTP	21
T_REC_HLD	54
T_REC_XHO	3
T_REC_STR	76
T_REC_BST	4
T_REC_XST	0
T_REC_TTP	27
T_REC_THO	0
T_REC_SLD	86
T_REC_ALL	769
T_NUM_TAP	599
T_NUM_BRK	27
T_NUM_HLD	57
T_NUM_SLD	86
T_NUM_ALL	769
T_JUDGE_TAP	626
T_JUDGE_HLD	149
T_JUDGE_SLD	86
T_JUDGE_ALL	861
TTM_EACHPAIRS	185
TTM_SCR_TAP	299500
TTM_SCR_BRK	70200
TTM_SCR_HLD	57000
TTM_SCR_SLD	129000
TTM_SCR_ALL	555700
TTM_SCR_S	536450
TTM_SCR_SS	553000
TTM_RAT_ACV	10048

