VERSION	0.00.00	1.03.00
FES_MODE	0
BPM_DEF	166.000	166.000	166.000	166.000
MET_DEF	4	4
RESOLUTION	384
CLK_DEF	384
COMPATIBLE_CODE	MA2

BPM	0	0	166.000
MET	0	0	4	4

TAP	2	288	3
TAP	2	288	4
TAP	3	0	2
HLD	3	0	6	96
TAP	3	96	4
TAP	3	144	4
TAP	3	192	5
TAP	3	288	3
TAP	3	288	6
TAP	4	0	2
TAP	4	48	3
TAP	4	96	4
TAP	4	192	1
TAP	4	192	5
TAP	4	288	2
TAP	4	288	6
HLD	5	0	1	96
TAP	5	0	5
TAP	5	96	3
TAP	5	144	3
TAP	5	192	2
TAP	5	288	1
TAP	5	288	4
TAP	6	0	5
TAP	6	48	4
TAP	6	96	3
TAP	6	192	2
TAP	6	192	6
TAP	6	288	3
TAP	6	288	4
HLD	7	0	1	96
TAP	7	0	5
TAP	7	96	3
TAP	7	144	3
TAP	7	192	2
TAP	7	288	1
TAP	7	288	4
TAP	8	0	5
TAP	8	48	4
TAP	8	96	3
TAP	8	192	2
TAP	8	192	6
TAP	8	288	1
TAP	8	288	5
TAP	9	0	2
HLD	9	0	6	96
TAP	9	96	4
TAP	9	144	4
TAP	9	192	5
TAP	9	288	3
TAP	9	288	6
TAP	10	0	2
TAP	10	48	3
TAP	10	96	4
TAP	10	192	1
TAP	10	192	5
TAP	10	288	3
TAP	10	288	4
TAP	11	0	2
HLD	11	0	5	480
TAP	11	96	2
TAP	11	192	4
TAP	11	288	4
TAP	12	0	3
TAP	12	96	3
TAP	12	192	2
TAP	12	192	6
TAP	12	288	4
TAP	13	0	3
HLD	13	0	5	384
TAP	13	96	3
TAP	13	192	4
TAP	13	288	4
TAP	14	0	3
TAP	14	96	2
TAP	14	96	5
TAP	14	192	1
TAP	14	192	6
HLD	15	0	2	480
TAP	15	0	5
TAP	15	96	5
XTP	15	192	7
TAP	15	288	7
TAP	16	0	4
TAP	16	96	4
TAP	16	192	1
TAP	16	192	5
TAP	16	288	3
HLD	17	0	2	384
TAP	17	0	4
TAP	17	96	4
TAP	17	192	3
TAP	17	288	3
TAP	18	0	4
TAP	18	96	2
TAP	18	96	5
TAP	18	192	1
TAP	18	192	6
STR	19	0	5
SI_	19	0	5	96	96	2
STR	19	192	1
SI_	19	192	1	96	96	5
TAP	20	0	7
TAP	20	96	7
HLD	20	192	6	72
HLD	20	264	5	72
TAP	20	336	4
TAP	21	48	2
TAP	21	96	2
STR	21	192	6
SI_	21	192	6	96	96	2
TAP	22	0	0
TAP	22	96	0
HLD	22	192	1	72
HLD	22	264	2	72
TAP	22	336	3
TAP	23	48	5
TAP	23	96	5
STR	23	192	1
SI_	23	192	1	96	96	5
TAP	24	0	7
TAP	24	96	7
HLD	24	192	6	72
HLD	24	264	5	72
TAP	24	336	4
TAP	25	48	2
TAP	25	96	2
STR	25	192	6
SI_	25	192	6	96	96	2
HLD	26	0	1	96
TAP	26	96	2
TAP	26	192	3
TAP	26	192	4
TAP	26	288	5
TAP	26	288	6
BRK	27	0	0
BRK	27	0	7
TAP	28	0	3
TAP	28	0	5
TAP	28	96	2
TAP	28	96	4
TAP	28	192	1
TAP	28	192	5
HLD	29	0	6	96
TAP	29	96	4
HLD	29	192	1	96
TAP	29	288	3
STR	30	0	3
SI_	30	0	3	96	96	0
TAP	30	0	5
STR	30	192	7
SI_	30	192	7	96	96	4
HLD	31	0	1	96
TAP	31	96	3
HLD	31	192	6	96
TAP	31	288	4
TAP	32	0	2
STR	32	0	4
SI_	32	0	4	96	96	7
BRK	32	192	0
BRK	32	288	0
HLD	33	0	5	96
TAP	33	96	7
HLD	33	192	2	96
TAP	33	288	0
STR	34	0	3
SI_	34	0	3	96	96	0
TAP	34	0	7
STR	34	192	4
SI_	34	192	4	96	96	7
HLD	35	0	2	96
TAP	35	96	0
HLD	35	192	5	96
TAP	35	288	7
TAP	36	0	0
TAP	36	96	1
TAP	36	96	3
HLD	36	192	7	96
BRK	36	288	0
TAP	37	0	4
TAP	37	0	6
BRK	37	96	5
BRK	37	96	6
TAP	37	192	1
TAP	37	192	3
BRK	37	288	1
BRK	37	288	2
STR	38	0	4
SCL	38	0	4	96	96	1
TAP	38	0	6
TAP	38	192	7
TAP	38	240	7
TAP	38	288	0
HLD	39	0	1	96
HLD	39	0	5	96
XTP	39	144	2
XTP	39	144	6
XTP	39	240	1
XTP	39	240	5
TAP	39	336	2
TAP	39	336	6
TAP	40	48	1
HLD	40	96	1	96
TAP	40	192	2
TAP	40	288	0
TAP	40	288	3
TAP	41	0	4
TAP	41	0	6
BRK	41	96	5
BRK	41	96	6
TAP	41	192	1
TAP	41	192	3
BRK	41	288	1
BRK	41	288	2
STR	42	0	4
SI_	42	0	4	96	96	7
TAP	42	192	0
TAP	42	240	0
TAP	42	288	7
HLD	43	0	2	96
HLD	43	0	6	96
XTP	43	144	1
XTP	43	144	5
XTP	43	240	2
XTP	43	240	6
XTP	43	336	1
XTP	43	336	5
TAP	44	48	2
TAP	44	48	6
TAP	44	96	2
TAP	44	96	6
TAP	44	192	3
TAP	44	192	4
STR	44	288	0
SV_	44	288	0	96	48	3
STR	44	288	7
SI_	44	288	7	96	48	4
TTP	46	0	1	E	0	M1
TTP	46	0	7	E	0	M1
TTP	46	48	2	E	0	M1
TTP	46	48	6	E	0	M1
TTP	46	96	3	E	0	M1
TTP	46	96	5	E	0	M1
TTP	46	144	4	E	0	M1
STR	46	288	0
SV_	46	288	0	96	48	3
STR	46	288	7
SI_	46	288	7	96	48	4
TAP	47	192	2
TAP	47	192	3
TAP	47	288	1
TAP	47	288	4
TAP	48	0	5
TAP	48	48	4
TAP	48	96	3
TAP	48	192	2
TAP	48	192	7
TAP	48	288	0
TAP	48	288	5
TAP	49	0	2
HLD	49	0	6	96
TAP	49	96	4
TAP	49	144	4
TAP	49	192	5
TAP	49	288	3
TAP	49	288	6
TAP	50	0	2
TAP	50	48	3
TAP	50	96	4
TAP	50	192	1
TAP	50	192	5
TAP	50	288	3
TAP	50	288	4
TAP	51	0	2
HLD	51	0	6	96
TAP	51	96	4
TAP	51	144	4
TAP	51	192	5
TAP	51	288	3
TAP	51	288	6
TAP	52	0	2
TAP	52	48	3
TAP	52	96	4
TAP	52	192	0
TAP	52	192	5
TAP	52	288	2
TAP	52	288	7
HLD	53	0	1	96
TAP	53	0	5
TAP	53	96	3
TAP	53	144	3
TAP	53	192	2
TAP	53	288	1
TAP	53	288	4
TAP	54	0	5
TAP	54	48	4
TAP	54	96	3
TAP	54	192	2
TAP	54	192	6
STR	55	0	0
SCR	55	0	0	96	96	3
HLD	55	192	5	96
TAP	55	288	4
TAP	56	0	2
TAP	56	48	3
TAP	56	96	4
TAP	56	192	2
TAP	56	192	6
TAP	56	288	1
TAP	56	288	5
STR	57	0	7
SCL	57	0	7	96	96	4
HLD	57	192	2	96
TAP	57	288	3
TAP	58	0	5
TAP	58	48	4
TAP	58	96	3
TAP	58	192	1
TAP	58	192	6
TAP	58	288	3
TAP	58	288	4
STR	59	0	0
SCR	59	0	0	96	96	3
BRK	59	192	5
TAP	59	288	4
TAP	60	0	2
TAP	60	48	3
TAP	60	96	4
TAP	60	192	2
TAP	60	192	6
TAP	60	288	1
TAP	60	288	5
STR	61	0	7
SCL	61	0	7	96	96	4
STR	61	192	3
SCL	61	192	3	96	96	0
TAP	62	0	7
TAP	62	48	7
TAP	62	96	0
TAP	62	192	2
TAP	62	192	5
TAP	62	288	3
TAP	62	288	4
STR	63	0	2
SI_	63	0	2	96	96	5
STR	63	192	6
SI_	63	192	6	96	96	2
TAP	64	0	0
TAP	64	96	0
HLD	64	192	1	72
HLD	64	264	2	72
TAP	64	336	3
TAP	65	0	3
TAP	65	96	3
TAP	65	96	4
STR	65	192	1
SI_	65	192	1	96	96	5
TAP	66	0	7
TAP	66	96	7
BRK	66	192	4
BRK	66	192	6
BRK	66	288	1
BRK	66	288	3
TAP	67	0	3
TAP	67	0	5
TAP	67	96	2
TAP	67	96	4
STR	67	192	6
SI_	67	192	6	96	96	2
TAP	68	0	0
TAP	68	96	0
HLD	68	192	1	72
HLD	68	264	2	72
TAP	68	336	3
TAP	69	0	3
TAP	69	96	2
TAP	69	96	4
STR	69	192	1
SI_	69	192	1	96	96	5
HLD	70	0	6	96
TAP	70	96	5
TAP	70	192	3
TAP	70	192	5
TAP	70	288	2
TAP	70	288	6
TAP	71	0	4
TAP	71	0	7
BRK	71	96	5
BRK	71	96	6
TAP	71	192	0
TAP	71	192	3
BRK	71	288	1
BRK	71	288	2
STR	72	0	0
SCR	72	0	0	96	96	3
TAP	72	192	7
TAP	72	240	7
TAP	72	288	0
TAP	72	288	6
HLD	73	0	1	96
HLD	73	0	5	96
XTP	73	144	2
XTP	73	144	6
XTP	73	240	1
XTP	73	240	5
TAP	73	336	2
TAP	73	336	6
TAP	74	48	1
HLD	74	96	1	96
TAP	74	192	0
XHO	74	288	7	96
TAP	75	0	4
BRK	75	96	5
BRK	75	96	6
TAP	75	192	0
TAP	75	192	3
BRK	75	288	1
BRK	75	288	2
STR	76	0	0
SI_	76	0	0	96	96	3
TAP	76	192	4
TAP	76	288	7
HLD	77	0	2	96
HLD	77	0	6	96
XTP	77	144	1
XTP	77	144	5
XTP	77	240	2
XTP	77	240	6
XTP	77	336	1
XTP	77	336	5
TAP	78	48	2
TAP	78	48	6
TAP	78	96	2
TAP	78	96	6
TAP	78	192	3
TAP	78	192	4
STR	78	288	0
SV_	78	288	0	96	48	3
STR	78	288	7
SI_	78	288	7	96	48	4
TTP	80	0	1	E	0	M1
TTP	80	0	7	E	0	M1
TTP	80	48	2	E	0	M1
TTP	80	48	6	E	0	M1
TTP	80	96	3	E	0	M1
TTP	80	96	5	E	0	M1
TTP	80	144	4	E	0	M1
STR	80	288	0
SV_	80	288	0	96	48	3
STR	80	288	7
SI_	80	288	7	96	48	4
TAP	81	192	4
TAP	81	192	5
TAP	81	288	3
TAP	81	288	6
TAP	82	0	2
TAP	82	48	3
TAP	82	96	4
TAP	82	192	1
TAP	82	192	5
TAP	82	288	2
TAP	82	288	6
HLD	83	0	1	96
TAP	83	0	5
TAP	83	96	3
TAP	83	144	3
TAP	83	192	2
TAP	83	288	1
TAP	83	288	4
TAP	84	0	5
TAP	84	48	4
TAP	84	96	3
TAP	84	192	2
TAP	84	192	6
STR	84	288	0
SV_	84	288	0	96	48	3
STR	84	288	7
SI_	84	288	7	96	48	4
TAP	85	192	2
TAP	85	192	3
TAP	85	288	1
TAP	85	288	4
TAP	86	0	5
TAP	86	48	4
TAP	86	96	3
TAP	86	192	2
TAP	86	192	6
TAP	86	288	1
TAP	86	288	5
TAP	87	0	2
HLD	87	0	6	96
TAP	87	96	4
TAP	87	144	4
TAP	87	192	5
TAP	87	288	3
TAP	87	288	6
TAP	88	0	2
TAP	88	48	3
TAP	88	96	4
TAP	88	192	1
TAP	88	192	5
TAP	88	288	3
TAP	88	288	4
BRK	89	0	2
BRK	89	0	5
TTP	89	192	3	B	0	M1
TTP	89	288	4	B	0	M1
TTP	90	0	5	E	0	M1
TTP	90	0	6	E	0	M1
TTP	90	96	7	E	0	M1
TTP	90	192	0	E	0	M1
TTP	90	288	1	E	0	M1
TTP	91	0	2	E	0	M1
TTP	91	0	3	E	0	M1
TTP	91	96	1	B	0	M1
TTP	91	192	0	E	0	M1
TTP	91	288	6	B	0	M1
TTP	92	0	5	E	0	M1
TTP	92	0	6	E	0	M1
TTP	92	96	2	E	0	M1
TTP	92	96	3	E	0	M1
THO	92	192	0	144	C	0	M1

T_REC_TAP	327
T_REC_BRK	28
T_REC_XTP	21
T_REC_HLD	46
T_REC_XHO	1
T_REC_STR	34
T_REC_BST	0
T_REC_XST	0
T_REC_TTP	30
T_REC_THO	1
T_REC_SLD	34
T_REC_ALL	522
T_NUM_TAP	412
T_NUM_BRK	28
T_NUM_HLD	48
T_NUM_SLD	34
T_NUM_ALL	522
T_JUDGE_TAP	440
T_JUDGE_HLD	125
T_JUDGE_SLD	34
T_JUDGE_ALL	599
TTM_EACHPAIRS	129
TTM_SCR_TAP	206000
TTM_SCR_BRK	72800
TTM_SCR_HLD	48000
TTM_SCR_SLD	51000
TTM_SCR_ALL	377800
TTM_SCR_S	363750
TTM_SCR_SS	375000
TTM_RAT_ACV	10074

