VERSION	0.00.00	1.03.00
FES_MODE	0
BPM_DEF	166.000	166.000	166.000	166.000
MET_DEF	4	4
RESOLUTION	384
CLK_DEF	384
COMPATIBLE_CODE	MA2

BPM	0	0	166.000
MET	0	0	4	4

XTP	3	0	2
TAP	3	96	2
TAP	3	192	2
TAP	3	192	3
TAP	4	0	5
TAP	4	96	5
TAP	4	192	4
TAP	4	192	5
TAP	5	0	2
TAP	5	96	2
TAP	5	192	2
TAP	5	192	3
TAP	6	0	4
TAP	6	96	4
TAP	6	192	3
TAP	6	192	5
TAP	7	0	6
TAP	7	96	6
TAP	7	192	6
TAP	7	192	7
TAP	8	0	1
TAP	8	96	1
TAP	8	192	0
TAP	8	192	1
TAP	9	0	6
TAP	9	96	6
TAP	9	192	6
TAP	9	192	7
TAP	10	0	0
TAP	10	96	7
BRK	10	192	1
BRK	10	192	6
HLD	11	0	2	192
TAP	11	192	3
HLD	12	0	5	192
TAP	12	192	4
TAP	13	0	2
TAP	13	96	2
TAP	13	192	3
TAP	14	0	4
TAP	14	96	4
TAP	14	192	3
TAP	14	192	5
HLD	15	0	6	192
TAP	15	192	7
HLD	16	0	1	192
TAP	16	192	0
TAP	17	0	6
TAP	17	96	6
TAP	17	192	7
TAP	18	0	0
TAP	18	96	7
XTP	18	192	1
XTP	18	192	6
HLD	19	0	2	96
TAP	19	96	3
TAP	19	192	3
HLD	20	0	5	96
TAP	20	96	4
TAP	20	192	4
HLD	21	0	2	96
TAP	21	96	3
TAP	21	192	3
TAP	22	0	4
TAP	22	96	4
TAP	22	192	3
TAP	22	192	5
HLD	23	0	6	96
TAP	23	96	7
TAP	23	192	7
HLD	24	0	1	96
TAP	24	96	0
TAP	24	192	0
HLD	25	0	6	96
TAP	25	96	7
TAP	25	192	7
TAP	26	0	0
TAP	26	96	0
TAP	26	192	7
TAP	26	288	7
HLD	27	0	0	192
HLD	27	0	7	192
XTP	28	0	1
XTP	28	0	6
XTP	28	96	1
XTP	28	96	6
XTP	28	192	1
XTP	28	192	6
TTP	29	0	0	B	0	L1
TTP	29	192	1	B	0	L1
TTP	30	0	2	B	0	L1
TTP	30	192	3	B	0	L1
TTP	31	0	4	B	0	L1
TTP	31	192	5	B	0	L1
TTP	32	0	6	B	0	L1
TTP	32	192	0	C	0	L1
XST	33	0	0
SI_	33	0	0	96	192	3
STR	34	0	4
SI_	34	0	4	96	192	7
STR	35	0	0
SI_	35	0	0	96	192	3
TAP	36	0	4
TAP	36	96	3
TAP	36	96	4
TAP	36	192	2
TAP	36	192	5
BRK	37	0	6
TAP	37	96	6
TAP	37	96	7
TAP	37	192	1
TAP	37	288	0
TAP	37	288	1
TAP	38	0	2
TAP	38	96	2
TAP	38	192	3
TAP	38	288	3
TAP	39	0	4
TAP	39	96	4
TAP	39	192	5
TAP	39	288	5
TAP	40	0	6
TAP	40	96	6
XTP	40	192	0
XTP	40	192	6
TAP	41	0	5
TAP	41	96	4
TAP	41	96	5
TAP	41	192	2
TAP	41	288	2
TAP	41	288	3
TAP	42	0	1
TAP	42	96	1
TAP	42	192	0
TAP	42	288	0
TAP	43	0	7
TAP	43	96	7
TAP	43	192	6
TAP	43	288	6
TAP	44	0	5
TAP	44	96	5
TAP	44	192	3
TAP	44	192	4
TAP	44	288	3
TAP	44	288	4
BRK	45	0	2
BRK	45	0	5
TAP	46	0	6
TAP	46	96	6
XTP	46	192	0
XTP	46	288	0
XTP	47	0	1
XTP	47	0	7
TAP	48	0	2
TAP	48	96	2
TAP	48	192	3
TAP	49	0	5
TAP	49	96	5
TAP	49	192	4
TAP	50	0	3
TAP	50	96	3
TAP	50	192	2
TAP	50	192	4
TAP	51	0	1
TAP	51	96	1
TAP	51	192	0
TAP	52	0	6
TAP	52	96	6
TAP	52	192	7
TAP	53	0	1
TAP	53	96	1
TAP	53	192	0
TAP	54	0	0
TAP	54	0	7
TAP	54	96	0
TAP	54	96	7
XTP	54	192	1
XTP	54	192	6
TTP	55	0	4	B	0	L1
TTP	55	0	5	E	0	L1
TTP	55	192	6	B	0	L1
TTP	55	192	6	E	0	L1
TTP	56	0	1	B	0	L1
TTP	56	96	2	B	0	L1
TTP	56	192	3	E	0	L1
TTP	57	0	4	B	0	L1
TTP	57	0	5	E	0	L1
TTP	57	192	6	B	0	L1
TTP	57	192	6	E	0	L1
TTP	58	0	3	E	0	L1
TTP	58	96	2	B	0	L1
TTP	58	192	1	B	0	L1
TTP	59	0	4	B	0	L1
TTP	59	0	5	E	0	L1
TTP	59	192	6	B	0	L1
TTP	59	192	7	E	0	L1
TTP	60	0	1	B	0	L1
TTP	60	96	2	B	0	L1
TTP	60	192	3	E	0	L1
TTP	61	0	6	B	0	L1
TTP	61	0	7	E	0	L1
TTP	61	192	4	B	0	L1
TTP	61	192	5	E	0	L1
TTP	62	0	3	E	0	L1
TTP	62	96	2	B	0	L1
TTP	62	192	1	B	0	L1
XST	63	0	7
SCL	63	0	7	96	192	4
STR	64	0	3
SCL	64	0	3	96	192	0
STR	65	0	7
SCL	65	0	7	96	192	4
TAP	66	0	3
TAP	66	96	3
TAP	66	192	2
TAP	66	192	4
STR	67	0	1
SI_	67	0	1	96	192	4
STR	68	0	5
SI_	68	0	5	96	192	0
STR	69	0	1
SI_	69	0	1	96	192	4
TAP	70	0	5
TAP	70	96	3
TAP	70	96	4
TAP	70	192	2
TAP	70	192	5
BRK	71	0	6
TAP	71	96	6
TAP	71	96	7
TAP	71	192	1
TAP	71	288	0
TAP	71	288	1
TAP	72	0	2
TAP	72	96	2
TAP	72	192	3
TAP	72	288	3
TAP	73	0	4
TAP	73	96	4
TAP	73	192	5
TAP	73	288	5
TAP	74	0	6
TAP	74	96	6
XTP	74	192	0
XTP	74	192	6
TAP	75	0	5
TAP	75	96	4
TAP	75	96	5
TAP	75	192	2
TAP	75	288	2
TAP	75	288	3
TAP	76	0	1
TAP	76	96	1
TAP	76	192	0
TAP	76	288	0
TAP	77	0	7
TAP	77	96	7
TAP	77	192	6
TAP	77	288	6
TAP	78	0	5
TAP	78	96	5
TAP	78	192	3
TAP	78	192	4
TAP	78	288	3
TAP	78	288	4
XTP	79	0	2
XTP	79	0	5
TAP	80	0	3
TAP	80	0	4
TAP	80	96	2
TAP	80	96	5
XTP	80	192	1
XTP	80	192	6
XTP	80	288	0
XTP	80	288	7
BRK	81	0	1
BRK	81	0	6
TAP	82	0	2
TAP	82	96	2
TAP	82	192	2
TAP	82	192	3
TAP	83	0	5
TAP	83	96	5
TAP	83	192	4
TAP	83	192	5
TAP	84	0	3
TAP	84	96	3
TAP	84	192	2
TAP	84	192	4
TAP	85	0	1
TAP	85	96	1
TAP	85	192	0
TAP	85	192	1
TAP	86	0	6
TAP	86	96	6
TAP	86	192	6
TAP	86	192	7
TAP	87	0	1
TAP	87	96	1
TAP	87	192	0
TAP	87	192	1
TAP	88	0	7
TAP	88	96	7
TAP	88	192	0
TAP	88	288	0
STR	89	0	1
SSR	89	0	1	96	384	5
STR	91	0	6
SSL	91	0	6	96	384	2

T_REC_TAP	206
T_REC_BRK	8
T_REC_XTP	25
T_REC_HLD	12
T_REC_XHO	0
T_REC_STR	9
T_REC_BST	0
T_REC_XST	2
T_REC_TTP	36
T_REC_THO	0
T_REC_SLD	11
T_REC_ALL	309
T_NUM_TAP	278
T_NUM_BRK	8
T_NUM_HLD	12
T_NUM_SLD	11
T_NUM_ALL	309
T_JUDGE_TAP	286
T_JUDGE_HLD	36
T_JUDGE_SLD	11
T_JUDGE_ALL	333
TTM_EACHPAIRS	52
TTM_SCR_TAP	139000
TTM_SCR_BRK	20800
TTM_SCR_HLD	12000
TTM_SCR_SLD	16500
TTM_SCR_ALL	188300
TTM_SCR_S	181900
TTM_SCR_SS	187500
TTM_RAT_ACV	10042

