VERSION	0.00.00	1.03.00
FES_MODE	0
BPM_DEF	166.000	166.000	166.000	166.000
MET_DEF	4	4
RESOLUTION	384
CLK_DEF	384
COMPATIBLE_CODE	MA2

BPM	0	0	166.000
MET	0	0	4	4

TAP	3	0	0
TAP	5	0	0
TAP	7	0	7
TAP	9	0	7
TAP	11	0	0
TAP	12	0	0
TAP	13	0	1
TAP	14	0	1
TAP	15	0	2
TAP	16	0	2
TAP	17	0	3
TAP	18	0	3
TAP	18	0	4
TAP	19	0	4
TAP	19	192	4
TAP	20	0	4
TAP	21	0	5
TAP	21	192	5
TAP	22	0	5
TAP	23	0	6
TAP	23	192	6
TAP	24	0	6
TAP	25	0	7
TAP	25	192	7
TAP	26	0	7
BRK	27	0	0
BRK	27	0	7
STR	29	0	0
SI_	29	0	0	96	288	3
STR	31	0	7
SI_	31	0	7	96	288	4
STR	33	0	0
SI_	33	0	0	96	288	4
TAP	35	0	7
TAP	35	192	7
XTP	36	0	0
XTP	36	0	7
TAP	37	0	7
TAP	37	192	7
TAP	38	0	6
TAP	38	96	6
TAP	38	192	6
TAP	39	0	5
TAP	39	192	5
TAP	40	0	4
TAP	40	96	3
TAP	40	192	4
TAP	41	0	3
TAP	41	192	3
TAP	42	0	2
TAP	42	96	2
TAP	42	192	2
TAP	43	0	1
TAP	43	192	1
TAP	44	0	0
TAP	44	96	7
TAP	44	192	0
HLD	45	0	0	384
HLD	45	0	7	384
BRK	47	0	0
TAP	47	192	0
TAP	48	0	1
TAP	48	192	1
TAP	49	0	2
TAP	49	192	2
TAP	50	0	2
TAP	50	0	3
TAP	51	0	4
TAP	51	192	4
TAP	52	0	5
TAP	52	192	5
TAP	53	0	6
TAP	53	192	6
XTP	54	0	6
XTP	54	0	7
HLD	55	0	7	384
HLD	57	0	6	384
HLD	59	0	5	384
HLD	61	0	4	384
TTP	63	0	3	B	0	L1
TTP	64	0	4	B	0	L1
TTP	65	0	2	B	0	L1
TTP	66	0	5	B	0	L1
TTP	67	0	2	B	0	L1
TTP	67	0	3	B	0	L1
TTP	68	0	4	B	0	L1
TTP	68	0	5	B	0	L1
THO	69	0	0	384	C	1	L1
BRK	71	0	0
TAP	71	192	0
TAP	72	0	1
TAP	72	96	1
TAP	72	192	1
TAP	73	0	2
TAP	73	192	2
TAP	74	0	3
TAP	74	96	4
TAP	74	192	3
TAP	75	0	4
TAP	75	192	4
TAP	76	0	5
TAP	76	96	5
TAP	76	192	5
TAP	77	0	6
TAP	77	192	6
TAP	78	0	7
TAP	78	96	0
TAP	78	192	7
HLD	79	0	0	384
HLD	79	0	7	384
BRK	81	0	0
BRK	81	0	7
TAP	81	192	7
TAP	82	0	6
TAP	82	192	6
TAP	83	0	5
TAP	83	192	5
TAP	84	0	3
TAP	84	0	4
TAP	84	192	3
TAP	84	192	4
TAP	85	0	3
TAP	85	192	3
TAP	86	0	2
TAP	86	192	2
TAP	87	0	1
TAP	87	192	1
TAP	88	0	0
TAP	88	192	0
HLD	89	0	0	384
HLD	89	0	7	384
HLD	91	0	1	720
HLD	91	0	6	720

T_REC_TAP	96
T_REC_BRK	6
T_REC_XTP	4
T_REC_HLD	12
T_REC_XHO	0
T_REC_STR	3
T_REC_BST	0
T_REC_XST	0
T_REC_TTP	8
T_REC_THO	1
T_REC_SLD	3
T_REC_ALL	133
T_NUM_TAP	111
T_NUM_BRK	6
T_NUM_HLD	13
T_NUM_SLD	3
T_NUM_ALL	133
T_JUDGE_TAP	117
T_JUDGE_HLD	118
T_JUDGE_SLD	3
T_JUDGE_ALL	238
TTM_EACHPAIRS	12
TTM_SCR_TAP	55500
TTM_SCR_BRK	15600
TTM_SCR_HLD	13000
TTM_SCR_SLD	4500
TTM_SCR_ALL	88600
TTM_SCR_S	85400
TTM_SCR_SS	88000
TTM_RAT_ACV	10068

