VERSION	0.00.00	1.03.00
FES_MODE	0
BPM_DEF	126.000	126.000	126.000	126.000
MET_DEF	4	4
RESOLUTION	384
CLK_DEF	384
COMPATIBLE_CODE	MA2

BPM	0	0	126.000
MET	0	0	4	4

TTP	1	288	4	B	0	M1
TTP	1	336	3	B	0	M1
TTP	2	0	3	E	0	M1
TTP	2	96	1	B	0	M1
TTP	2	168	2	B	0	M1
TTP	2	168	3	B	0	M1
TTP	2	288	6	B	0	M1
TTP	2	360	4	B	0	M1
TTP	2	360	5	B	0	M1
TTP	3	96	0	C	0	M1
TTP	3	168	3	B	0	M1
TTP	3	168	4	B	0	M1
TTP	4	0	0	B	0	M1
TTP	4	0	7	B	0	M1
TTP	4	96	6	B	0	M1
TTP	4	168	4	B	0	M1
TTP	4	168	5	B	0	M1
TTP	4	288	1	B	0	M1
TTP	4	360	2	B	0	M1
TTP	4	360	3	B	0	M1
TTP	5	96	0	E	0	M1
TTP	5	192	0	C	0	M1
TTP	5	288	3	B	0	M1
TTP	5	288	4	B	0	M1
HLD	6	0	2	552
TAP	6	96	4
TAP	6	168	3
TAP	6	288	4
TAP	6	360	3
TAP	7	96	4
STR	7	168	3
SCR	7	168	3	96	48	5
HLD	8	0	5	360
TAP	8	96	3
TAP	8	168	4
TAP	8	288	3
STR	8	360	4
SCR	8	360	4	96	792	3
TTP	9	192	6	E	0	M1
TTP	10	0	0	E	0	M1
TTP	10	192	2	E	0	M1
TAP	11	240	4
TAP	11	256	3
TAP	11	272	4
TAP	11	288	3
TTP	12	0	0	C	1	M1
XHO	12	0	0	48
TTP	12	72	0	C	1	M1
XHO	12	72	7	48
TTP	12	144	0	C	1	M1
XHO	12	144	1	48
TTP	12	216	0	C	1	M1
XHO	12	216	6	48
TAP	12	288	0
TAP	12	288	7
TAP	12	336	0
STR	12	336	7
SCR	12	336	7	96	528	6
TTP	13	48	0	C	1	M1
TAP	14	336	2
TAP	14	336	5
STR	15	0	2
SCL	15	0	2	96	192	5
TAP	15	0	5
HLD	16	0	4	96
TAP	16	96	3
TAP	16	168	2
TAP	16	168	4
TAP	16	216	3
TAP	16	216	5
TAP	16	288	3
TAP	16	288	4
TAP	16	336	2
TAP	16	336	5
XTP	17	0	1
XTP	17	0	6
HLD	17	48	0	72
HLD	17	120	1	72
HLD	17	192	2	72
HLD	17	264	3	72
TAP	17	336	4
TAP	18	0	4
TAP	18	0	5
HLD	18	48	6	72
HLD	18	120	7	72
HLD	18	192	0	72
TAP	18	264	1
TAP	18	336	3
TAP	18	360	4
TAP	19	0	3
HLD	19	48	7	72
HLD	19	120	6	72
HLD	19	192	5	72
HLD	19	264	4	72
TAP	19	336	3
TAP	20	0	2
TAP	20	0	3
TAP	20	96	5
TAP	20	120	4
TAP	20	168	2
TAP	20	192	3
BRK	20	240	1
BRK	20	240	6
TAP	21	0	2
TAP	21	24	3
STR	21	48	2
SCR	21	48	2	96	48	5
TAP	21	96	1
TAP	21	96	4
TAP	21	144	2
STR	21	192	6
SI_	21	192	6	96	48	2
TAP	21	240	5
TAP	21	240	7
TAP	21	288	6
TAP	22	0	1
TAP	22	24	0
STR	22	48	1
SCL	22	48	1	96	48	6
TAP	22	96	2
TAP	22	96	7
TAP	22	144	1
STR	22	192	5
SI_	22	192	5	96	48	1
TAP	22	240	4
TAP	22	240	6
TAP	22	288	5
STR	23	0	3
SXL	23	0	3	96	96	4
TAP	23	96	1
STR	23	192	3
SXL	23	192	3	96	96	4
TAP	23	288	1
TAP	24	0	3
TAP	24	96	0
TAP	24	96	2
TAP	24	168	5
TAP	24	168	7
TAP	24	192	5
HLD	24	192	7	96
TTP	24	288	0	C	1	M1
TAP	25	0	6
TAP	25	24	7
STR	25	48	6
SCR	25	48	6	96	48	1
TAP	25	96	0
TAP	25	96	5
TAP	25	144	6
STR	25	192	2
SI_	25	192	2	96	48	6
TAP	25	240	1
TAP	25	240	3
TAP	25	288	2
TAP	26	0	5
TAP	26	24	4
STR	26	48	5
SCL	26	48	5	96	48	2
TAP	26	96	3
TAP	26	96	6
TAP	26	144	5
STR	26	192	1
SI_	26	192	1	96	48	5
TAP	26	240	0
TAP	26	240	2
TAP	26	288	1
STR	27	0	4
SXR	27	0	4	96	96	3
TAP	27	96	6
STR	27	192	4
SXR	27	192	4	96	96	3
TAP	27	288	6
TAP	28	0	4
TAP	28	96	5
TAP	28	96	7
TAP	28	168	0
TAP	28	168	2
HLD	28	192	0	96
TAP	28	192	2
TTP	28	288	0	C	1	M1
BST	29	0	0
SCR	29	0	0	96	384	7
THO	29	0	0	480	C	0	M1
TAP	30	192	0
TAP	30	192	7
TAP	30	224	0
TAP	30	224	7
TAP	30	256	0
TAP	30	256	7
XTP	30	288	1
XTP	30	288	6
TAP	31	0	3
TAP	31	0	4
TAP	31	48	2
TAP	31	72	3
TAP	31	96	2
TAP	31	120	3
TAP	31	144	2
TAP	31	168	3
STR	31	192	2
SI_	31	192	2	96	48	7
SCL	31	192	2	96	48	7
TAP	31	240	2
TAP	32	0	6
TAP	32	48	3
TAP	32	48	5
TAP	32	96	4
TAP	32	120	3
TAP	32	144	4
TAP	32	168	3
STR	32	192	4
SI_	32	192	4	96	48	6
STR	32	240	4
SI_	32	240	4	96	48	0
STR	33	0	7
SV_	33	0	7	96	48	0
TAP	33	48	1
TAP	33	96	2
TAP	33	144	3
STR	33	192	4
SSL	33	192	4	96	72	0
TAP	33	240	4
TAP	33	288	2
TAP	33	336	2
TAP	34	0	3
TAP	34	24	3
TAP	34	72	6
TAP	34	96	6
TAP	34	144	5
STR	34	192	4
SLR	34	192	4	96	96	1
STR	34	192	6
SLL	34	192	6	96	96	1
TAP	35	48	2
TAP	35	72	3
TAP	35	96	2
TAP	35	120	3
TAP	35	144	2
TAP	35	168	3
XTP	35	192	1
XTP	35	240	0
XTP	35	288	7
XTP	35	336	6
TAP	36	0	4
TAP	36	0	5
TAP	36	48	2
TAP	36	48	3
STR	36	96	3
SI_	36	96	3	96	48	1
STR	36	96	4
SI_	36	96	4	96	48	0
TAP	36	144	2
TAP	36	144	5
BST	36	192	3
SI_	36	192	3	96	48	7
BST	36	192	4
SI_	36	192	4	96	48	6
BRK	36	288	3
BRK	36	288	4
TAP	37	0	0
TAP	37	48	1
TAP	37	96	2
TAP	37	96	3
TAP	37	144	3
TAP	37	144	4
XTP	37	192	5
XTP	37	216	5
XTP	37	240	5
XTP	37	264	5
XTP	37	288	5
XTP	37	312	5
XTP	37	336	5
TAP	38	0	3
TAP	38	0	4
XTP	38	88	3
XTP	38	112	4
XTP	38	132	3
XTP	38	152	4
XTP	38	172	3
XTP	38	208	5
XTP	38	236	2
XTP	38	252	3
XTP	38	268	4
XTP	38	284	5
XTP	38	308	3
BST	39	0	2
SUR	39	0	2	96	192	4
HLD	39	0	5	96
TAP	39	192	5
TAP	39	288	5
STR	40	0	2
SLR	40	0	2	96	144	0
STR	40	0	6
SLL	40	0	6	96	144	0
TAP	40	288	1
TAP	40	288	7
TAP	41	0	2
TAP	41	0	6
TTP	41	96	6	B	0	M1
TTP	41	96	7	B	0	M1
TTP	41	96	7	E	0	M1
TTP	41	192	4	B	0	M1
TTP	41	192	5	B	0	M1
TTP	41	192	5	E	0	M1
TTP	41	288	1	B	0	M1
TTP	41	288	2	B	0	M1
TTP	41	288	2	E	0	M1
TTP	42	0	0	C	1	M1
XHO	42	96	5	96
XHO	42	192	6	96
XHO	42	288	7	96
XST	43	0	0
SCR	43	0	0	96	288	7
TTP	43	96	2	E	0	M1
TTP	43	192	4	E	0	M1
TTP	43	288	6	E	0	M1
TTP	44	0	0	C	1	M1
TTP	44	0	0	E	0	M1
TAP	44	144	2
TAP	44	168	5
TAP	44	192	2
TAP	44	240	3
TAP	44	240	4
TAP	44	288	3
TAP	44	288	4
HLD	44	336	3	240
HLD	44	336	4	304
XTP	46	0	2
XTP	46	0	5
XTP	46	32	2
XTP	46	32	5
XTP	46	64	3
XTP	46	80	4
XTP	46	96	3
XTP	46	112	4
TTP	46	144	0	C	1	M1
BRK	46	336	0
BRK	46	336	7
BRK	47	0	1
BRK	47	0	6
TAP	47	48	5
TAP	47	72	4
TAP	47	96	6
TAP	47	120	7
TAP	47	144	4
HLD	47	168	3	48
TAP	47	216	0
TAP	47	240	1
TAP	47	264	3
TAP	47	288	2
TAP	47	312	4
TAP	47	360	0
HLD	47	360	7	48
TAP	48	24	5
TAP	48	48	6
TAP	48	72	4
TAP	48	96	5
STR	48	144	0
SI_	48	144	0	96	24	4
TAP	48	144	4
TAP	48	168	0
STR	48	168	4
SI_	48	168	4	96	48	0
TAP	48	216	5
TAP	48	240	5
TAP	48	288	6
BRK	48	336	7
BRK	49	0	7
TAP	49	48	1
TAP	49	72	3
TAP	49	96	2
TAP	49	120	6
TAP	49	144	4
HLD	49	168	5	48
TAP	49	216	7
TAP	49	240	6
TAP	49	264	3
STR	49	288	4
SSL	49	288	4	96	72	0
TAP	49	336	0
TAP	49	360	0
TAP	50	24	1
TAP	50	48	1
TAP	50	96	2
TAP	50	144	7
STR	50	168	7
SI_	50	168	7	96	48	4
SSR	50	168	7	96	48	3
TAP	50	216	0
TAP	50	216	6
TAP	50	264	7
BRK	50	336	1
BRK	51	0	1
TAP	51	48	2
TAP	51	72	3
TAP	51	96	1
TAP	51	120	0
TAP	51	144	3
HLD	51	168	4	48
TAP	51	216	7
TAP	51	240	6
TAP	51	264	4
TAP	51	288	5
TAP	51	312	3
TAP	51	336	7
HLD	51	360	0	48
TAP	52	24	3
TAP	52	48	2
TAP	52	72	4
TAP	52	96	3
TAP	52	120	5
STR	52	144	4
SXL	52	144	4	96	96	4
TAP	52	168	6
TAP	52	216	3
TAP	52	240	3
TAP	52	288	2
BRK	52	336	0
BRK	53	0	0
TAP	53	48	6
TAP	53	72	4
TAP	53	96	5
TAP	53	120	1
TAP	53	144	3
HLD	53	168	2	48
TAP	53	216	0
TAP	53	240	1
TAP	53	264	4
TAP	53	288	3
TAP	53	312	6
TAP	53	336	7
TAP	53	360	5
HLD	54	48	5	48
HLD	54	48	6	48
HLD	54	144	5	48
HLD	54	144	6	48
TTP	54	240	0	C	1	M1
XTP	55	0	0
XTP	55	0	7
TAP	55	48	1
TAP	55	60	2
TAP	55	72	3
TAP	55	96	5
TAP	55	120	5
TAP	55	168	4
TAP	55	168	6
TAP	55	216	2
TAP	55	240	3
TAP	55	264	2
TAP	55	288	4
TAP	55	312	3
TAP	55	336	4
HLD	55	360	3	48
TAP	56	24	5
TAP	56	48	4
TAP	56	72	5
TAP	56	96	3
TAP	56	120	4
TAP	56	144	3
XTP	56	168	2
XTP	56	168	5
TAP	56	216	6
TAP	56	240	7
TAP	56	264	6
TAP	56	288	0
TAP	56	300	1
TAP	56	312	2
TAP	56	336	5
TAP	56	360	5
TAP	57	0	4
TAP	57	48	3
TAP	57	48	6
TAP	57	96	4
TAP	57	120	3
TAP	57	168	2
TAP	57	168	5
TAP	57	240	1
TAP	57	240	3
TAP	57	288	2
TAP	57	312	3
TAP	57	360	1
TAP	57	360	4
TAP	58	48	3
TAP	58	96	4
TAP	58	144	5
XTP	58	192	2
XTP	58	192	6
XTP	58	224	2
XTP	58	224	6
XTP	58	256	2
XTP	58	256	6
XTP	58	288	1
XTP	58	288	5
XTP	58	320	1
XTP	58	320	5
XTP	58	352	1
XTP	58	352	5
BRK	59	0	0
BRK	59	0	4
TAP	59	96	2
TAP	59	96	3
TAP	59	144	1
TAP	59	168	0
TAP	59	216	2
TAP	59	240	2
TAP	59	288	5
TAP	59	312	4
TAP	59	360	3
TAP	59	360	6
TAP	60	48	2
TAP	60	48	5
TAP	60	96	4
TAP	60	120	3
TAP	60	168	3
TAP	60	168	4
TAP	60	216	2
TAP	60	216	5
TAP	60	264	1
TAP	60	264	6
TAP	60	312	0
HLD	60	312	7	48
XTP	60	360	0
XTP	60	372	7
XTP	61	0	0
XTP	61	12	7
XTP	61	24	0
XTP	61	36	7
XTP	61	48	0
XTP	61	60	7
XTP	61	72	0
XTP	61	84	7
XTP	61	96	0
XTP	61	108	7
XTP	61	120	0
XTP	61	132	7
XTP	61	144	0
XTP	61	156	7
XTP	61	168	0
XTP	61	180	7
XTP	61	192	0
XTP	61	204	7
XTP	61	216	0
XTP	61	228	7
XTP	61	240	0
XTP	61	252	7
XTP	61	264	0
XTP	61	276	7
XTP	61	288	0
XTP	61	300	7
XTP	61	312	0
BST	61	360	1
SXR	61	360	1	96	216	5
BRK	61	360	6
XTP	63	48	3
XTP	63	48	4
XTP	63	120	3
XTP	63	120	4
TTP	63	168	0	C	1	M1
TTP	63	168	1	B	0	M1
TTP	63	168	6	B	0	M1
BRK	63	336	0
BRK	63	336	7
BRK	64	0	1
BRK	64	0	6
TAP	64	48	2
TAP	64	72	3
TAP	64	96	1
TAP	64	120	0
TAP	64	144	3
HLD	64	168	4	48
TAP	64	216	7
TAP	64	240	6
TAP	64	264	4
TAP	64	288	5
TAP	64	312	3
HLD	64	360	0	48
TAP	64	360	7
TAP	65	24	2
TAP	65	48	1
STR	65	72	4
SCL	65	72	4	96	120	6
TAP	65	96	3
TAP	65	120	5
TAP	65	144	0
TAP	65	168	0
TAP	65	240	3
TAP	65	288	3
BRK	65	336	0
BRK	65	336	1
BRK	66	0	0
BRK	66	0	1
TAP	66	48	6
TAP	66	72	4
TAP	66	96	5
TAP	66	120	1
TAP	66	144	3
HLD	66	168	2	48
TAP	66	216	0
TAP	66	240	1
TAP	66	264	4
TAP	66	288	3
TAP	66	312	6
TAP	66	336	7
HLD	66	360	5	48
TAP	67	24	1
TAP	67	48	4
TAP	67	72	2
TAP	67	96	5
TAP	67	120	3
TAP	67	144	6
TAP	67	168	0
TAP	67	168	7
TAP	67	216	2
TAP	67	216	3
TTP	67	264	0	B	0	M1
TTP	67	264	0	C	1	M1
TTP	67	264	1	B	0	M1
TTP	67	264	4	B	0	M1
TTP	67	264	5	B	0	M1
BRK	67	336	6
BRK	67	336	7
BRK	68	0	6
BRK	68	0	7
TAP	68	48	5
TAP	68	72	4
TAP	68	96	6
TAP	68	120	7
TAP	68	144	4
HLD	68	168	3	48
TAP	68	216	0
TAP	68	240	1
TAP	68	264	3
TAP	68	288	2
TAP	68	312	4
TAP	68	336	0
HLD	68	360	7	48
TAP	69	24	5
TAP	69	48	6
TAP	69	72	3
TAP	69	96	4
TAP	69	120	1
STR	69	144	2
SLR	69	144	2	96	96	0
TAP	69	168	1
TAP	69	216	4
TAP	69	240	4
TAP	69	288	5
BRK	69	336	7
BRK	70	0	0
BRK	70	0	7
TAP	70	48	1
TAP	70	72	3
TAP	70	96	2
TAP	70	120	6
TAP	70	144	4
HLD	70	168	5	48
TAP	70	216	7
TAP	70	240	6
TAP	70	264	3
TAP	70	288	4
TAP	70	312	1
TAP	70	336	0
THO	70	360	0	120	C	1	M1
TTP	71	96	1	B	0	M1
TTP	71	96	6	B	0	M1
XTP	71	192	0
XTP	71	192	7
XTP	71	264	4
XTP	71	264	6
XTP	71	336	1
XTP	71	336	3
XST	72	0	3
SI_	72	0	3	96	48	0
XST	72	0	4
SI_	72	0	4	96	48	7
TAP	72	96	3
TAP	72	96	4
BST	72	192	3
SCL	72	192	3	96	48	0
BST	72	192	7
SCL	72	192	7	96	48	4
BST	72	288	3
SXL	72	288	3	96	288	6
BST	72	288	7
SXL	72	288	7	96	288	2
BRK	73	0	3
BRK	73	0	7
XTP	74	0	0
TAP	74	32	0
TAP	74	64	0
XTP	74	96	2
TAP	74	128	2
TAP	74	160	2
XTP	74	192	4
TAP	74	224	4
TAP	74	256	4
XTP	74	288	6
TAP	74	320	6
TAP	74	352	6
XHO	75	0	0	48
XHO	75	0	7	48
XHO	75	72	1	48
XHO	75	72	6	48
XHO	75	144	2	48
XHO	75	144	5	48
XHO	75	216	3	48
XHO	75	216	4	48
TAP	75	288	2
TAP	75	288	4
TAP	75	336	3
TAP	75	336	5
XHO	76	0	0	48
XHO	76	0	6	48
XHO	76	72	2	48
XHO	76	72	3	48
XHO	76	144	1	48
XHO	76	144	7	48
XHO	76	216	4	48
XHO	76	216	5	48
TAP	76	288	1
TAP	76	288	6
TAP	76	336	2
TAP	76	352	3
TAP	76	368	4
TAP	77	0	5
TTP	77	48	0	C	1	M1
TTP	77	48	1	B	0	M1
TTP	77	48	2	B	0	M1
TTP	77	48	5	B	0	M1
TTP	77	48	6	B	0	M1

T_REC_TAP	379
T_REC_BRK	34
T_REC_XTP	93
T_REC_HLD	38
T_REC_XHO	23
T_REC_STR	34
T_REC_BST	9
T_REC_XST	3
T_REC_TTP	66
T_REC_THO	2
T_REC_SLD	48
T_REC_ALL	729
T_NUM_TAP	575
T_NUM_BRK	43
T_NUM_HLD	63
T_NUM_SLD	48
T_NUM_ALL	729
T_JUDGE_TAP	618
T_JUDGE_HLD	120
T_JUDGE_SLD	48
T_JUDGE_ALL	786
TTM_EACHPAIRS	112
TTM_SCR_TAP	287500
TTM_SCR_BRK	111800
TTM_SCR_HLD	63000
TTM_SCR_SLD	72000
TTM_SCR_ALL	534300
TTM_SCR_S	514100
TTM_SCR_SS	530000
TTM_RAT_ACV	10081

