VERSION	0.00.00	1.03.00
FES_MODE	0
BPM_DEF	126.000	126.000	126.000	126.000
MET_DEF	4	4
RESOLUTION	384
CLK_DEF	384
COMPATIBLE_CODE	MA2

BPM	0	0	126.000
MET	0	0	4	4

STR	2	0	3
SI_	2	0	3	96	384	0
STR	4	0	3
SI_	4	0	3	96	384	0
TAP	6	0	5
TAP	6	96	5
XTP	6	192	5
TAP	6	288	5
TAP	7	0	5
TAP	7	96	5
TAP	7	192	5
TAP	7	288	5
TAP	8	0	4
TAP	8	96	4
TAP	8	192	4
STR	8	288	4
SCR	8	288	4	96	192	7
STR	11	0	0
SCR	11	0	0	96	192	3
HLD	12	0	6	72
HLD	12	72	4	72
HLD	12	144	3	72
HLD	12	216	1	72
TAP	12	288	7
TAP	12	336	7
TTP	13	48	0	C	1	M1
TTP	13	48	2	B	0	M1
TTP	13	48	3	B	0	M1
TTP	13	48	4	B	0	M1
TTP	13	48	5	B	0	M1
TAP	14	336	2
TAP	14	336	5
TAP	15	0	2
HLD	15	0	5	768
TAP	15	288	4
TAP	16	96	4
TAP	16	288	4
HLD	17	0	2	768
TAP	17	96	3
TAP	17	192	3
TAP	17	288	3
TAP	18	0	4
TAP	18	96	4
TAP	18	192	3
TAP	18	288	3
HLD	19	0	5	288
TAP	19	96	4
TAP	19	192	4
TAP	19	288	4
TAP	20	0	3
TAP	20	0	6
TAP	20	96	1
TAP	20	96	4
TAP	20	144	1
TAP	20	144	4
XTP	20	240	0
XTP	20	240	7
TAP	21	0	5
TAP	21	48	5
TAP	21	96	4
TAP	21	144	6
TAP	21	240	3
TAP	21	240	7
TAP	21	288	3
TAP	21	288	7
TAP	22	0	2
TAP	22	48	2
TAP	22	96	3
TAP	22	144	1
TAP	22	240	0
TAP	22	240	4
HLD	22	288	0	96
HLD	22	288	4	96
HLD	23	96	4	96
HLD	23	96	5	96
HLD	23	288	2	96
HLD	23	288	3	96
TTP	24	96	0	C	0	M1
TTP	24	192	1	E	0	M1
TTP	24	192	7	E	0	M1
TAP	25	0	2
TAP	25	48	2
TAP	25	96	3
TAP	25	144	1
TAP	25	240	0
TAP	25	240	4
TAP	25	288	0
TAP	25	288	4
TAP	26	0	5
TAP	26	48	5
TAP	26	96	4
TAP	26	144	6
TAP	26	240	3
TAP	26	240	7
HLD	26	288	3	96
HLD	26	288	7	96
HLD	27	96	2	96
HLD	27	96	3	96
HLD	27	288	4	96
HLD	27	288	5	96
TTP	28	96	1	B	0	M1
TTP	28	96	6	B	0	M1
TTP	28	192	0	C	1	M1
STR	29	0	0
SCR	29	0	0	96	288	7
XTP	30	192	0
XTP	30	192	7
XTP	30	224	0
XTP	30	224	7
XTP	30	256	1
XTP	30	256	6
XTP	30	288	1
XTP	30	288	6
HLD	31	0	5	96
TAP	31	96	4
TAP	31	192	5
TAP	31	240	4
TAP	31	288	3
TAP	32	0	2
TAP	32	0	6
TAP	32	96	1
TAP	32	96	5
TAP	32	192	7
TAP	32	240	7
TAP	32	288	0
HLD	33	0	2	96
TAP	33	96	3
TAP	33	192	2
TAP	33	240	3
TAP	33	288	4
TAP	34	0	4
TAP	34	0	5
TAP	34	96	1
TAP	34	96	7
TAP	34	192	2
TAP	34	192	3
TAP	34	288	0
TAP	34	288	6
TAP	35	0	1
TAP	35	48	1
TAP	35	96	3
TAP	35	192	7
TAP	35	240	7
TAP	35	288	0
TAP	35	288	6
TAP	36	0	4
TAP	36	0	5
BRK	36	96	0
BRK	36	96	7
TAP	36	192	2
TAP	36	192	3
BRK	36	288	0
BRK	36	288	7
TAP	37	0	6
TAP	37	48	6
TAP	37	96	4
TAP	37	192	0
TAP	37	240	0
TAP	37	288	1
TAP	37	288	7
STR	38	0	2
SCR	38	0	2	96	96	5
TAP	39	0	4
TAP	39	0	5
TAP	39	96	4
HLD	39	96	5	384
TAP	39	192	4
TAP	39	288	7
TAP	40	0	7
HLD	40	96	2	384
TAP	40	192	3
TAP	40	288	0
TAP	41	0	0
HLD	41	96	6	384
TAP	41	192	4
TAP	41	288	7
TAP	42	0	7
HLD	42	96	1	384
TAP	42	192	3
TAP	42	288	0
TAP	43	0	0
HLD	43	96	5	288
TAP	43	192	3
TAP	43	288	4
BRK	44	0	7
TAP	44	144	4
TAP	44	192	4
TAP	44	240	3
TAP	44	288	3
HLD	44	336	2	144
HLD	44	336	5	144
TTP	45	192	4	E	0	M1
THO	46	0	0	144	C	1	M1
BRK	46	336	0
BRK	46	336	7
BRK	47	0	0
BRK	47	0	7
TAP	47	48	6
TAP	47	96	6
TAP	47	144	4
TAP	47	192	3
TAP	47	192	5
TAP	47	240	3
TAP	47	240	5
TAP	47	288	2
TAP	47	336	2
TAP	48	0	3
TAP	48	48	4
TAP	48	96	5
HLD	48	144	2	96
HLD	48	144	6	96
BRK	48	336	0
BRK	48	336	7
BRK	49	0	0
BRK	49	0	7
TAP	49	48	1
TAP	49	96	1
TAP	49	144	3
TAP	49	192	2
TAP	49	192	4
TAP	49	240	2
TAP	49	240	4
TAP	49	288	5
TAP	49	336	5
TAP	50	0	4
TAP	50	48	3
TAP	50	96	2
TAP	50	144	2
TAP	50	168	3
TAP	50	216	3
TAP	50	216	4
TAP	50	264	2
TAP	50	264	5
BRK	50	336	0
BRK	50	336	7
BRK	51	0	0
BRK	51	0	7
TAP	51	48	6
TAP	51	96	6
TAP	51	144	4
TAP	51	192	3
TAP	51	192	5
TAP	51	240	3
TAP	51	240	5
TAP	51	288	2
TAP	51	336	2
TAP	52	0	3
TAP	52	48	4
TAP	52	96	5
TAP	52	144	2
TAP	52	144	6
TAP	52	192	2
TAP	52	192	6
TAP	52	240	2
TAP	52	240	6
BRK	52	336	0
BRK	52	336	7
BRK	53	0	0
BRK	53	0	7
TAP	53	48	1
TAP	53	96	1
TAP	53	144	3
TAP	53	192	2
TAP	53	192	4
TAP	53	240	2
TAP	53	240	4
TAP	53	288	1
TAP	53	288	5
HLD	53	336	1	48
HLD	53	336	5	48
HLD	54	48	2	48
HLD	54	48	6	48
HLD	54	144	1	48
HLD	54	144	5	48
THO	54	240	0	144	C	1	M1
TAP	56	0	5
TAP	56	48	5
TAP	56	96	4
TAP	56	192	2
TAP	56	240	1
TAP	56	240	3
TAP	56	288	1
TAP	56	288	3
HLD	57	0	0	96
HLD	57	96	2	96
STR	57	192	3
SUR	57	192	3	96	192	4
TAP	58	192	7
TAP	58	224	7
TAP	58	256	0
TAP	58	288	0
TAP	59	0	1
TAP	59	0	6
TAP	59	96	2
TAP	59	144	2
TAP	59	192	3
TAP	59	240	3
TAP	59	288	4
TAP	59	336	4
TAP	60	0	5
TAP	60	48	5
TAP	60	96	6
TAP	60	144	6
TAP	60	192	0
TAP	60	192	7
TAP	60	240	0
TAP	60	240	7
TAP	60	288	1
STR	60	288	6
SXL	60	288	6	96	240	2
XTP	61	360	0
STR	62	96	3
SCL	62	96	3	96	96	0
STR	62	96	4
SCR	62	96	4	96	96	7
XTP	63	48	1
XTP	63	48	6
XTP	63	120	0
XTP	63	120	7
XTP	63	168	0
XTP	63	168	7
BRK	63	336	2
BRK	63	336	5
BRK	64	0	2
BRK	64	0	5
TAP	64	48	1
TAP	64	96	0
TAP	64	144	7
TAP	64	192	0
TAP	64	192	6
TAP	64	240	0
TAP	64	240	6
TAP	64	288	1
TAP	64	336	1
TAP	65	0	2
TAP	65	48	3
TAP	65	96	4
HLD	65	144	2	96
HLD	65	144	5	96
BRK	65	336	1
BRK	65	336	6
BRK	66	0	1
BRK	66	0	6
TAP	66	48	7
TAP	66	96	7
TAP	66	144	0
TAP	66	192	1
TAP	66	192	6
TAP	66	240	1
TAP	66	240	6
TAP	66	288	2
TAP	66	336	2
TAP	67	0	3
TAP	67	48	4
TAP	67	96	5
TAP	67	144	5
TAP	67	168	4
TAP	67	216	3
TAP	67	216	4
TAP	67	264	2
TAP	67	264	5
BRK	67	336	1
BRK	67	336	7
BRK	68	0	1
BRK	68	0	7
TAP	68	48	0
TAP	68	96	1
TAP	68	144	2
TAP	68	192	3
TAP	68	192	5
TAP	68	240	3
TAP	68	240	5
TAP	68	288	6
TAP	68	336	7
TAP	69	0	0
TAP	69	48	1
TAP	69	96	2
TAP	69	144	3
TAP	69	144	4
TAP	69	192	3
TAP	69	192	4
TAP	69	240	2
TAP	69	240	5
BRK	69	336	0
BRK	69	336	6
BRK	70	0	0
BRK	70	0	6
TAP	70	48	7
TAP	70	96	6
TAP	70	144	5
TAP	70	192	3
TAP	70	192	4
TAP	70	240	3
TAP	70	240	4
TAP	70	288	2
TAP	70	288	5
TAP	70	336	2
TAP	70	336	5
TAP	71	48	0
TAP	71	48	7
TAP	71	96	0
TAP	71	96	7
HLD	71	192	6	72
HLD	71	264	5	72
TAP	71	336	4
TAP	72	0	4
TAP	72	96	2
TAP	72	96	3
TAP	72	192	0
TAP	72	192	1
TAP	72	288	6
TAP	72	288	7
BST	73	0	4
SUR	73	0	4	96	192	3
BST	73	0	5
SCR	73	0	5	96	192	2
XTP	74	0	1
XTP	74	0	4
XTP	74	32	1
XTP	74	32	4
XTP	74	96	3
XTP	74	96	6
XTP	74	128	3
XTP	74	128	6
XTP	74	192	1
XTP	74	192	4
XTP	74	224	1
XTP	74	224	4
BRK	74	288	0
BRK	74	288	7
HLD	75	0	6	72
HLD	75	72	5	72
HLD	75	144	4	72
HLD	75	216	3	72
TAP	75	288	2
HLD	76	0	1	72
HLD	76	72	2	72
HLD	76	144	3	72
HLD	76	216	4	72
TAP	76	288	5
BRK	77	48	0
BRK	77	48	6

T_REC_TAP	283
T_REC_BRK	41
T_REC_XTP	30
T_REC_HLD	50
T_REC_XHO	0
T_REC_STR	10
T_REC_BST	2
T_REC_XST	0
T_REC_TTP	12
T_REC_THO	2
T_REC_SLD	12
T_REC_ALL	442
T_NUM_TAP	335
T_NUM_BRK	43
T_NUM_HLD	52
T_NUM_SLD	12
T_NUM_ALL	442
T_JUDGE_TAP	378
T_JUDGE_HLD	162
T_JUDGE_SLD	12
T_JUDGE_ALL	552
TTM_EACHPAIRS	111
TTM_SCR_TAP	167500
TTM_SCR_BRK	111800
TTM_SCR_HLD	52000
TTM_SCR_SLD	18000
TTM_SCR_ALL	349300
TTM_SCR_S	334650
TTM_SCR_SS	345000
TTM_RAT_ACV	10124

