VERSION	0.00.00	1.03.00
FES_MODE	0
BPM_DEF	126.000	126.000	126.000	126.000
MET_DEF	4	4
RESOLUTION	384
CLK_DEF	384
COMPATIBLE_CODE	MA2

BPM	0	0	126.000
MET	0	0	4	4

HLD	6	0	2	384
HLD	7	0	3	384
HLD	8	0	4	384
XTP	9	0	5
TAP	9	192	3
TAP	9	192	4
TAP	10	0	2
TAP	10	0	5
STR	10	192	1
SLR	10	192	1	96	336	0
STR	10	192	6
SLL	10	192	6	96	336	7
XTP	12	0	0
XTP	12	0	7
XTP	12	96	0
XTP	12	96	7
XTP	12	192	0
XTP	12	192	7
XST	12	288	0
SXL	12	288	0	96	432	3
XST	12	288	7
SXR	12	288	7	96	432	4
XST	15	0	1
SUR	15	0	1	96	192	5
XST	16	0	6
SUL	16	0	6	96	192	2
HLD	17	0	1	192
TAP	17	192	0
HLD	18	0	6	192
TAP	18	192	7
HLD	19	0	1	192
TAP	19	192	0
HLD	20	0	0	240
HLD	20	0	7	240
BRK	21	0	1
TAP	21	96	1
TAP	21	192	0
TAP	21	288	0
TAP	22	0	7
TAP	22	96	7
TAP	22	192	6
TAP	22	288	6
HLD	23	0	4	96
HLD	23	0	5	96
HLD	23	192	2	96
HLD	23	192	3	96
TAP	24	0	3
TAP	24	0	4
XTP	24	96	3
XTP	24	96	4
XTP	24	192	2
XTP	24	192	5
TAP	25	0	6
TAP	25	96	6
TAP	25	192	7
TAP	25	288	7
TAP	26	0	0
TAP	26	96	0
TAP	26	192	1
TAP	26	288	1
HLD	27	0	2	96
HLD	27	0	3	96
HLD	27	192	4	96
HLD	27	192	5	96
TAP	28	0	3
TAP	28	0	4
XTP	28	96	3
XTP	28	96	4
XTP	28	192	2
XTP	28	192	5
TTP	29	0	1	E	0	L1
TTP	29	0	7	E	0	L1
TTP	29	192	1	B	0	L1
TTP	29	192	6	B	0	L1
TTP	30	0	2	B	0	L1
TTP	30	0	5	B	0	L1
TTP	30	192	3	E	0	L1
TTP	30	192	5	E	0	L1
XTP	31	0	1
TAP	31	96	1
TAP	31	192	0
TAP	32	0	6
TAP	32	96	6
TAP	32	192	7
TAP	33	0	1
TAP	33	96	1
TAP	33	192	0
TAP	34	0	7
TAP	34	96	7
TAP	34	192	0
TAP	34	192	6
TAP	35	0	5
TAP	35	96	5
TAP	35	192	4
TAP	36	0	2
TAP	36	96	2
TAP	36	192	3
TAP	37	0	5
TAP	37	96	5
TAP	37	192	4
TAP	38	0	3
TAP	38	0	4
TAP	38	96	3
TAP	38	96	4
XTP	38	192	2
XTP	38	192	5
HLD	39	0	1	192
HLD	39	192	0	192
HLD	40	0	7	192
XTP	40	192	6
HLD	41	0	5	192
HLD	41	192	4	192
HLD	42	0	3	192
TAP	42	192	2
TTP	43	0	0	B	0	L1
TTP	43	0	1	B	0	L1
TTP	43	192	6	B	0	L1
TTP	43	192	7	B	0	L1
TTP	44	0	4	B	0	L1
TTP	44	0	5	B	0	L1
TTP	44	192	2	B	0	L1
TTP	44	192	3	B	0	L1
THO	45	0	0	528	C	1	L1
XTP	47	0	1
TAP	47	96	1
TAP	47	192	0
TAP	47	192	1
TAP	47	288	0
TAP	47	288	1
TAP	48	0	2
TAP	48	96	3
TAP	48	192	2
TAP	48	192	4
TAP	49	0	5
TAP	49	96	5
TAP	49	192	4
TAP	49	192	5
TAP	49	288	4
TAP	49	288	5
TAP	50	0	6
TAP	50	96	7
TAP	50	192	0
TAP	50	192	7
TAP	51	0	6
TAP	51	96	6
TAP	51	192	6
TAP	51	192	7
TAP	51	288	6
TAP	51	288	7
TAP	52	0	5
TAP	52	96	4
TAP	52	192	3
TAP	52	192	5
TAP	53	0	2
TAP	53	96	2
TAP	53	192	2
TAP	53	192	3
TAP	53	288	2
TAP	53	288	3
TAP	54	0	4
TAP	54	96	3
TAP	54	96	4
BRK	54	192	2
BRK	54	192	5
STR	55	0	6
SCL	55	0	6	96	192	3
STR	56	0	2
SCL	56	0	2	96	192	7
STR	57	0	6
SCL	57	0	6	96	192	3
TAP	58	0	2
TAP	58	96	2
XTP	58	192	1
XTP	58	192	3
STR	59	0	0
SCR	59	0	0	96	192	3
STR	60	0	4
SCR	60	0	4	96	192	7
STR	61	0	0
SCR	61	0	0	96	192	3
STR	62	0	4
SCR	62	0	4	96	480	3
TAP	64	0	1
TAP	64	96	0
TAP	64	96	1
TAP	64	192	6
TAP	64	288	6
TAP	64	288	7
TAP	65	0	5
TAP	65	96	4
TAP	65	192	3
TAP	65	192	5
TAP	66	0	6
TAP	66	96	6
TAP	66	96	7
TAP	66	192	1
TAP	66	288	0
TAP	66	288	1
TAP	67	0	2
TAP	67	96	3
TAP	67	96	4
XTP	67	192	2
XTP	67	192	5
TAP	68	0	5
TAP	68	96	4
TAP	68	96	5
TAP	68	192	2
TAP	68	288	2
TAP	68	288	3
TAP	69	0	1
TAP	69	96	0
TAP	69	192	1
TAP	69	192	7
TAP	70	0	2
TAP	70	96	2
TAP	70	96	3
TAP	70	192	5
TAP	70	288	4
TAP	70	288	5
TAP	71	0	6
TAP	71	96	0
TAP	71	96	7
BST	71	192	0
SCR	71	192	0	96	192	3
BST	71	192	7
SCL	71	192	7	96	192	4
TAP	72	288	3
TAP	72	288	4
STR	73	0	3
SXR	73	0	3	96	480	0
STR	73	0	4
SXL	73	0	4	96	480	7
TTP	75	0	1	B	0	L1
TTP	75	0	6	B	0	L1
TTP	75	192	2	B	0	L1
TTP	75	192	5	B	0	L1
TTP	76	0	3	E	0	L1
TTP	76	0	5	E	0	L1
THO	76	192	0	240	C	1	L1

T_REC_TAP	132
T_REC_BRK	3
T_REC_XTP	24
T_REC_HLD	22
T_REC_XHO	0
T_REC_STR	11
T_REC_BST	2
T_REC_XST	4
T_REC_TTP	22
T_REC_THO	2
T_REC_SLD	17
T_REC_ALL	239
T_NUM_TAP	193
T_NUM_BRK	5
T_NUM_HLD	24
T_NUM_SLD	17
T_NUM_ALL	239
T_JUDGE_TAP	198
T_JUDGE_HLD	102
T_JUDGE_SLD	17
T_JUDGE_ALL	317
TTM_EACHPAIRS	52
TTM_SCR_TAP	96500
TTM_SCR_BRK	13000
TTM_SCR_HLD	24000
TTM_SCR_SLD	25500
TTM_SCR_ALL	159000
TTM_SCR_S	153750
TTM_SCR_SS	158500
TTM_RAT_ACV	10031

