VERSION	0.00.00	1.03.00
FES_MODE	0
BPM_DEF	126.000	126.000	126.000	126.000
MET_DEF	4	4
RESOLUTION	384
CLK_DEF	384
COMPATIBLE_CODE	MA2

BPM	0	0	126.000
MET	0	0	4	4

TAP	6	0	0
TAP	7	0	7
TAP	8	0	0
TAP	9	0	7
TAP	10	0	0
TAP	11	0	0
TAP	11	0	7
THO	12	0	0	432	C	1	L1
HLD	15	0	0	384
HLD	17	0	7	384
HLD	19	0	0	384
HLD	19	0	7	384
TTP	21	0	0	B	0	L1
TTP	22	0	7	B	0	L1
TTP	23	0	1	B	0	L1
TTP	24	0	6	B	0	L1
TTP	25	0	2	B	0	L1
TTP	26	0	5	B	0	L1
TTP	27	0	3	B	0	L1
TTP	28	0	4	B	0	L1
THO	29	0	0	384	C	0	L1
TAP	31	0	0
TAP	31	192	0
TAP	32	0	0
TAP	33	0	1
TAP	33	192	1
TAP	34	0	1
TAP	35	0	2
TAP	35	192	2
TAP	36	0	2
TAP	37	0	3
TAP	37	192	3
XTP	38	0	3
XTP	38	0	4
STR	39	0	4
SI_	39	0	4	96	288	7
STR	41	0	0
SI_	41	0	0	96	288	3
STR	43	0	4
SI_	43	0	4	96	288	7
TAP	45	0	0
TAP	45	192	0
TAP	46	0	0
TAP	46	0	7
TAP	47	0	7
TAP	47	192	7
TAP	48	0	6
TAP	48	96	6
TAP	48	192	6
TAP	49	0	5
TAP	49	192	5
TAP	50	0	4
TAP	50	96	4
TAP	50	192	3
TAP	50	192	4
XTP	51	0	3
TAP	51	192	3
TAP	52	0	2
TAP	52	96	2
TAP	52	192	2
TAP	53	0	1
TAP	53	192	1
TAP	54	0	0
TAP	54	96	0
TAP	54	192	0
TAP	54	192	7
HLD	55	0	1	384
HLD	57	0	2	384
HLD	59	0	3	384
HLD	61	0	3	384
HLD	61	0	4	384
XTP	63	0	3
XTP	63	0	4
BRK	64	0	4
TAP	64	96	4
TAP	64	192	4
TAP	65	0	5
TAP	65	96	5
TAP	65	192	4
TAP	65	192	5
TAP	66	0	3
TAP	66	96	3
TAP	66	192	3
TAP	67	0	2
TAP	67	96	2
TAP	67	192	2
TAP	67	192	3
TAP	68	0	1
TAP	68	96	1
TAP	68	192	1
TAP	69	0	0
TAP	69	96	0
TAP	69	192	0
TAP	69	192	7
TAP	70	0	6
TAP	70	96	6
TAP	70	192	6
TAP	71	0	7
TAP	71	96	7
TAP	71	192	0
TAP	71	192	7
TAP	72	0	6
TAP	72	96	6
TAP	72	192	6
TAP	73	0	5
TAP	73	96	5
TAP	73	192	4
TAP	73	192	5
TAP	74	0	3
TAP	74	96	3
TAP	74	192	3
TAP	74	192	4
TAP	75	0	4
TAP	75	96	4
TAP	75	192	3
TAP	75	288	3
TAP	76	0	3
TAP	76	0	4
TAP	76	96	3
TAP	76	96	4
TAP	76	192	3
TAP	76	192	4
HLD	76	288	3	144
HLD	76	288	4	144

T_REC_TAP	91
T_REC_BRK	1
T_REC_XTP	5
T_REC_HLD	11
T_REC_XHO	0
T_REC_STR	3
T_REC_BST	0
T_REC_XST	0
T_REC_TTP	8
T_REC_THO	2
T_REC_SLD	3
T_REC_ALL	124
T_NUM_TAP	107
T_NUM_BRK	1
T_NUM_HLD	13
T_NUM_SLD	3
T_NUM_ALL	124
T_JUDGE_TAP	108
T_JUDGE_HLD	95
T_JUDGE_SLD	3
T_JUDGE_ALL	206
TTM_EACHPAIRS	18
TTM_SCR_TAP	53500
TTM_SCR_BRK	2600
TTM_SCR_HLD	13000
TTM_SCR_SLD	4500
TTM_SCR_ALL	73600
TTM_SCR_S	71300
TTM_SCR_SS	73500
TTM_RAT_ACV	10013

