VERSION	0.00.00	1.03.00
FES_MODE	0
BPM_DEF	195.000	195.000	195.000	195.000
MET_DEF	4	4
RESOLUTION	384
CLK_DEF	384
COMPATIBLE_CODE	MA2

BPM	0	0	195.000
MET	0	0	4	4

TTP	1	336	5	E	0	M1
TTP	1	352	4	B	0	M1
TTP	1	368	3	B	0	M1
TTP	2	0	3	E	0	M1
TAP	2	96	1
TAP	2	192	7
TAP	2	240	7
TAP	2	288	2
TAP	2	336	3
HLD	2	336	5	240
TTP	3	48	5	E	0	M1
TTP	3	96	0	C	0	M1
TTP	3	144	3	E	0	M1
TTP	3	192	2	E	0	M1
TAP	3	288	0
TAP	3	288	7
STR	4	0	1
SI_	4	0	1	96	48	4
TAP	4	96	5
TAP	4	192	6
TAP	4	240	6
TAP	4	288	4
HLD	4	336	7	96
TAP	5	48	2
TAP	5	96	2
TAP	5	144	3
STR	5	192	1
SCR	5	192	1	96	48	4
TAP	5	288	5
STR	6	0	7
SCL	6	0	7	96	48	4
TAP	6	96	3
HLD	6	192	1	96
TAP	6	288	3
TAP	6	336	3
TAP	7	48	5
TAP	7	96	5
TAP	7	144	4
TAP	7	192	7
TAP	7	240	2
TAP	7	288	5
TAP	7	336	4
STR	8	0	6
SI_	8	0	6	96	48	3
TAP	8	96	2
TAP	8	192	1
TAP	8	240	1
TAP	8	288	3
TAP	8	336	0
TAP	9	48	5
TAP	9	96	5
TAP	9	144	4
STR	9	192	3
SCL	9	192	3	96	48	0
TAP	9	288	6
STR	10	0	4
SCR	10	0	4	96	48	7
TAP	10	96	1
HLD	10	192	0	96
TAP	10	288	3
TAP	10	336	3
TAP	11	48	5
TAP	11	96	5
TAP	11	144	4
TAP	11	192	7
TAP	11	288	2
TAP	11	288	5
STR	12	0	0
SI_	12	0	0	96	48	4
TAP	12	96	5
TAP	12	192	6
TAP	12	240	6
STR	12	288	4
SCL	12	288	4	96	48	1
TAP	13	0	5
TAP	13	96	7
TAP	13	144	7
TAP	13	192	0
TAP	13	192	6
TAP	13	288	3
TAP	13	288	5
STR	14	0	2
SI_	14	0	2	96	48	5
TAP	14	96	5
STR	14	192	6
SI_	14	192	6	96	48	1
TAP	14	288	1
TAP	15	0	2
TAP	15	96	2
TAP	15	96	4
TAP	15	192	5
TAP	15	288	4
TAP	15	288	6
STR	16	0	7
SCL	16	0	7	96	48	4
TAP	16	96	1
HLD	16	192	2	96
STR	16	288	7
SSR	16	288	7	96	240	3
TAP	17	0	3
TAP	17	96	2
TAP	17	192	0
TAP	17	288	1
TAP	17	336	1
TAP	18	0	3
TAP	18	96	5
TAP	18	144	5
TAP	18	192	4
TAP	18	240	7
TAP	18	288	0
TAP	18	336	0
TAP	19	0	3
TAP	19	96	2
TAP	19	96	4
BRK	19	192	1
BRK	19	192	5
STR	20	0	6
SI_	20	0	6	96	48	2
TAP	20	96	2
STR	20	192	1
SI_	20	192	1	96	48	5
TAP	20	288	5
TAP	20	336	6
STR	21	0	7
SI_	21	0	7	96	48	4
STR	21	96	0
SI_	21	96	0	96	48	3
TAP	21	192	7
STR	21	288	2
SI_	21	288	2	96	48	0
STR	21	288	6
SI_	21	288	6	96	48	4
STR	22	96	1
SI_	22	96	1	96	48	3
STR	22	96	5
SI_	22	96	5	96	48	7
STR	22	288	2
SI_	22	288	2	96	48	0
STR	22	288	6
SI_	22	288	6	96	48	4
TAP	23	96	1
HLD	23	96	5	96
HLD	23	192	7	96
HLD	23	288	0	96
TAP	24	0	2
HLD	24	96	6	192
TAP	24	192	4
STR	24	288	4
SXR	24	288	4	96	288	0
TAP	25	0	5
TAP	25	96	5
TAP	25	192	6
STR	25	288	7
SI_	25	288	7	96	48	3
TAP	26	0	2
STR	26	96	0
SI_	26	96	0	96	48	4
TAP	26	192	5
STR	26	288	7
SCL	26	288	7	96	192	0
TAP	27	288	3
TAP	27	288	4
STR	28	0	7
SCL	28	0	7	96	192	2
TTP	28	96	4	B	0	M1
TTP	28	96	5	B	0	M1
TAP	28	192	1
TAP	28	288	1
STR	29	0	0
SCR	29	0	0	96	192	5
TTP	29	96	2	B	0	M1
TTP	29	96	3	B	0	M1
TAP	29	192	6
TAP	29	288	6
STR	30	0	7
SCL	30	0	7	96	192	2
TTP	30	96	4	B	0	M1
TTP	30	96	5	B	0	M1
TAP	30	192	1
TAP	30	288	1
STR	31	0	0
SCR	31	0	0	96	192	6
TTP	31	96	2	B	0	M1
TTP	31	96	3	E	0	M1
TTP	31	192	5	B	0	M1
TTP	31	192	5	E	0	M1
TAP	32	0	0
HLD	32	0	6	192
TAP	32	96	4
HLD	32	192	1	192
TAP	32	288	3
HLD	33	0	7	96
TAP	33	96	5
TAP	33	144	7
HLD	33	192	0	96
TAP	33	288	2
TAP	33	336	0
TAP	34	0	7
TAP	34	96	2
TAP	34	96	6
TAP	34	144	2
TAP	34	144	6
HLD	34	192	2	192
HLD	34	192	6	288
TAP	35	96	1
TAP	35	144	1
TAP	35	192	3
TAP	35	240	3
TAP	35	288	4
TAP	36	0	2
HLD	36	0	5	768
TTP	36	192	4	B	0	M1
TTP	36	192	4	E	0	M1
TTP	37	0	7	E	0	M1
TTP	37	96	6	E	0	M1
TTP	37	192	5	E	0	M1
TTP	37	288	4	E	0	M1
HLD	38	0	2	768
TTP	38	192	3	B	0	M1
TTP	38	192	4	E	0	M1
TTP	39	0	1	E	0	M1
TTP	39	96	2	E	0	M1
TTP	39	192	3	E	0	M1
TTP	39	288	4	E	0	M1
TAP	40	0	4
TAP	40	96	3
TAP	40	96	5
TAP	40	192	2
TAP	40	288	1
TAP	40	288	3
TAP	41	0	5
TAP	41	96	7
TAP	41	144	7
TAP	41	192	0
TAP	41	240	4
STR	41	288	4
SCR	41	288	4	96	240	2
TTP	42	0	0	C	1	M1
TAP	43	0	0
TAP	43	0	7
TAP	43	72	1
TAP	43	72	3
TAP	43	144	4
TAP	43	144	6
TAP	43	192	0
TAP	43	192	7
XTP	43	288	1
XTP	43	288	6
STR	44	0	0
SI_	44	0	0	96	48	4
STR	44	48	7
SI_	44	48	7	96	48	5
XTP	44	96	0
XTP	44	144	7
TAP	44	240	2
TAP	44	288	1
TAP	44	288	3
STR	45	0	7
SI_	45	0	7	96	48	3
STR	45	48	0
SI_	45	48	0	96	48	2
XTP	45	96	7
XTP	45	144	0
STR	45	192	4
SI_	45	192	4	96	48	0
SI_	45	192	4	96	48	1
TAP	46	96	2
TAP	46	96	3
TAP	46	192	4
TAP	46	192	5
TAP	46	288	6
TAP	46	288	7
TAP	46	336	6
TAP	46	336	7
TAP	47	48	2
TAP	47	48	4
STR	47	96	1
SUR	47	96	1	96	48	6
STR	47	96	5
SCL	47	96	5	96	48	2
XTP	47	336	0
XTP	47	336	7
TAP	48	48	2
TAP	48	96	2
TAP	48	144	3
STR	48	192	0
SI_	48	192	0	96	48	3
TAP	48	288	4
TAP	48	336	5
TAP	49	48	7
STR	49	96	7
SI_	49	96	7	96	48	3
TAP	49	144	2
HLD	49	192	1	96
TAP	49	336	2
STR	50	0	2
SI_	50	0	2	96	48	6
STR	50	96	0
SI_	50	96	0	96	48	4
STR	50	192	7
SCL	50	192	7	96	192	0
BRK	50	288	0
BRK	50	336	0
TAP	51	192	0
TAP	51	216	7
TAP	51	240	0
TAP	51	264	7
TAP	51	288	0
STR	52	0	6
SI_	52	0	6	96	48	2
STR	52	48	1
SI_	52	48	1	96	48	4
XTP	52	96	6
XTP	52	144	1
TAP	52	240	5
TAP	52	288	3
TAP	52	288	7
STR	53	0	0
SI_	53	0	0	96	48	4
STR	53	48	6
SI_	53	48	6	96	48	2
XTP	53	96	0
XTP	53	144	6
STR	53	192	3
SI_	53	192	3	96	48	6
SI_	53	192	3	96	48	7
TAP	54	96	4
TAP	54	96	5
TAP	54	192	2
TAP	54	192	3
TAP	54	288	0
TAP	54	288	1
TAP	54	336	0
TAP	54	336	1
TAP	55	48	3
TAP	55	48	5
STR	55	96	2
SUL	55	96	2	96	48	5
STR	55	96	6
SCR	55	96	6	96	48	1
XTP	55	336	3
XTP	55	336	4
TAP	56	48	5
TAP	56	96	5
TAP	56	144	4
STR	56	192	7
SI_	56	192	7	96	48	4
TAP	56	288	3
TAP	56	336	2
STR	57	48	0
SI_	57	48	0	96	48	3
STR	57	96	7
SI_	57	96	7	96	48	4
XTP	57	144	0
XTP	57	192	7
TAP	57	336	3
TAP	58	0	2
TAP	58	0	4
TAP	58	96	7
TAP	58	144	0
TAP	58	144	7
STR	58	240	3
SI_	58	240	3	96	48	0
STR	58	240	4
SI_	58	240	4	96	48	7
XTP	58	336	3
XTP	58	336	4
TAP	59	48	1
TAP	59	48	6
TAP	59	144	0
TAP	59	144	7
STR	59	192	0
SI_	59	192	0	96	48	4
STR	59	192	7
SI_	59	192	7	96	48	3
XTP	59	288	0
XTP	59	288	7
BRK	60	0	1
BRK	60	0	5
TAP	60	288	4
TAP	60	336	3
TAP	60	336	5
TTP	61	48	0	B	0	M1
TTP	61	48	1	E	0	M1
TTP	61	96	6	B	0	M1
TTP	61	96	7	E	0	M1
TTP	61	144	2	B	0	M1
TTP	61	144	3	E	0	M1
TTP	61	192	4	B	0	M1
TTP	61	192	5	E	0	M1
TAP	61	288	1
TAP	61	288	3
BRK	62	0	2
BRK	62	0	6
TAP	62	288	3
TAP	62	336	2
TAP	62	336	4
TAP	63	48	5
TAP	63	96	5
TAP	63	144	3
BRK	63	192	7
XTP	63	288	2
TAP	64	0	1
TAP	64	0	5
TAP	64	96	2
TAP	64	96	6
TAP	64	168	5
TAP	64	192	4
TAP	64	240	4
TAP	64	288	3
TAP	64	288	5
TAP	65	0	2
TAP	65	0	6
TAP	65	96	1
TAP	65	96	5
TAP	65	168	2
TAP	65	192	3
TAP	65	240	3
TAP	65	288	2
TAP	65	288	4
TAP	66	0	1
TAP	66	0	5
TAP	66	96	2
TAP	66	96	6
TAP	66	168	3
TAP	66	192	4
STR	66	240	2
SCL	66	240	2	96	240	5
TAP	66	240	5
TTP	66	336	0	C	1	M1
STR	68	0	0
SI_	68	0	0	96	768	3
STR	69	0	7
SI_	69	0	7	96	768	4
STR	72	0	0
SI_	72	0	0	96	768	3
STR	73	0	7
SI_	73	0	7	96	768	4
STR	75	288	3
SCL	75	288	3	96	192	0
TAP	76	0	4
TAP	76	96	4
TAP	76	192	4
STR	76	288	0
SI_	76	288	0	96	192	3
TAP	76	288	4
TAP	77	0	4
TAP	77	96	4
TAP	77	192	4
STR	77	288	3
SLL	77	288	3	96	288	4
TAP	77	288	4
TAP	78	0	5
TAP	78	96	5
TAP	78	192	5
TAP	78	288	5
TAP	79	0	4
TAP	79	0	5
TAP	79	72	3
TAP	79	72	4
TAP	79	144	2
TAP	79	144	3
TAP	79	192	2
TAP	79	192	3
TAP	79	288	1
TAP	79	336	1
TAP	80	0	3
TAP	80	96	0
TAP	80	96	4
TAP	80	192	6
TAP	80	240	6
TAP	80	288	4
TAP	81	0	1
TAP	81	48	1
TAP	81	96	3
TAP	81	192	7
TAP	81	240	7
STR	81	288	0
SCR	81	288	0	96	96	4
STR	82	0	4
SCR	82	0	4	96	96	0
STR	82	96	0
SCR	82	96	0	96	96	4
TAP	82	192	4
TAP	82	288	0
TAP	83	0	3
TAP	83	24	4
TAP	83	48	3
TAP	83	72	4
TAP	83	96	3
TAP	83	120	4
TAP	83	144	3
TAP	83	192	2
TAP	83	192	5
STR	84	0	7
SI_	84	0	7	96	48	3
STR	84	48	0
SI_	84	48	0	96	48	2
XTP	84	96	7
XTP	84	144	0
TAP	84	240	5
TAP	84	288	6
TAP	84	336	1
STR	85	0	0
SI_	85	0	0	96	48	4
STR	85	48	7
SI_	85	48	7	96	48	5
XTP	85	96	0
XTP	85	144	7
STR	85	192	3
SI_	85	192	3	96	48	6
SI_	85	192	3	96	48	7
TAP	86	96	4
TAP	86	96	5
TAP	86	192	2
TAP	86	192	3
TAP	86	288	0
TAP	86	288	1
TAP	86	336	0
TAP	86	336	1
TAP	87	48	3
TAP	87	48	5
STR	87	96	2
SCR	87	96	2	96	48	5
STR	87	96	6
SUL	87	96	6	96	48	1
XTP	87	336	0
XTP	87	336	7
TAP	88	48	5
TAP	88	96	5
TAP	88	144	4
STR	88	192	7
SI_	88	192	7	96	48	4
TAP	88	288	3
TAP	88	336	2
TAP	89	48	0
STR	89	96	0
SI_	89	96	0	96	48	4
TAP	89	144	5
HLD	89	192	6	96
TAP	89	336	5
STR	90	0	5
SI_	90	0	5	96	48	1
STR	90	96	7
SI_	90	96	7	96	48	3
STR	90	192	0
SCR	90	192	0	96	192	7
BRK	90	288	7
BRK	90	336	7
TAP	91	192	7
TAP	91	216	0
TAP	91	240	7
TAP	91	264	0
TAP	91	288	7
STR	92	0	1
SI_	92	0	1	96	48	6
STR	92	48	5
SI_	92	48	5	96	48	2
XTP	92	96	1
XTP	92	144	5
TAP	92	240	1
TAP	92	288	0
TAP	92	336	6
STR	93	0	5
SI_	93	0	5	96	48	2
STR	93	48	1
SI_	93	48	1	96	48	6
XTP	93	96	5
XTP	93	144	1
STR	93	192	4
SI_	93	192	4	96	48	0
SI_	93	192	4	96	48	1
TAP	94	96	2
TAP	94	96	3
TAP	94	192	4
TAP	94	192	5
TAP	94	288	6
TAP	94	288	7
TAP	94	336	6
TAP	94	336	7
TAP	95	48	2
TAP	95	48	4
STR	95	96	1
SCL	95	96	1	96	48	6
STR	95	96	5
SUR	95	96	5	96	48	2
XTP	95	336	3
XTP	95	336	4
TAP	96	48	2
TAP	96	96	2
TAP	96	144	3
STR	96	192	0
SI_	96	192	0	96	48	3
TAP	96	288	4
TAP	96	336	5
STR	97	48	7
SI_	97	48	7	96	48	4
STR	97	96	0
SI_	97	96	0	96	48	3
XTP	97	144	7
XTP	97	192	0
TAP	97	336	4
TAP	98	0	3
TAP	98	0	5
TAP	98	96	0
TAP	98	144	0
TAP	98	144	7
STR	98	240	3
SI_	98	240	3	96	48	0
STR	98	240	4
SI_	98	240	4	96	48	7
XTP	98	336	3
XTP	98	336	4
TAP	99	48	1
TAP	99	48	6
TAP	99	144	0
TAP	99	144	7
TAP	99	192	2
TAP	99	192	5
TAP	100	0	1
STR	100	0	6
SI_	100	0	6	96	48	3
TAP	100	96	2
TAP	100	192	1
TAP	100	240	1
TAP	100	288	3
HLD	100	336	0	96
TAP	101	48	5
TAP	101	96	5
TAP	101	144	4
STR	101	192	6
SCL	101	192	6	96	48	3
TAP	101	288	2
STR	102	0	0
SCR	102	0	0	96	48	3
TAP	102	96	4
HLD	102	192	6	96
TAP	102	288	4
TAP	102	336	4
TAP	103	48	2
TAP	103	96	2
TAP	103	144	7
TAP	103	192	7
TAP	103	240	4
TAP	103	288	5
TAP	103	336	2
STR	104	0	1
SI_	104	0	1	96	48	4
TAP	104	96	5
TAP	104	192	6
TAP	104	240	6
TAP	104	288	4
TAP	104	336	7
TAP	105	48	2
TAP	105	96	2
TAP	105	144	3
STR	105	192	4
SCR	105	192	4	96	48	7
TAP	105	288	1
STR	106	0	3
SCL	106	0	3	96	48	0
TAP	106	96	6
HLD	106	192	7	96
TAP	106	288	4
TAP	106	336	4
TAP	107	48	2
TAP	107	96	2
TAP	107	144	7
TAP	107	192	7
TAP	107	240	4
TAP	107	288	5
TAP	107	336	3
STR	108	0	2
SI_	108	0	2	96	48	7
TAP	108	96	5
TAP	108	192	6
TAP	108	240	6
TAP	108	288	4
HLD	108	336	7	96
TAP	109	48	2
TAP	109	96	2
TAP	109	144	3
STR	109	192	0
SV_	109	192	0	96	48	3
TAP	109	288	4
STR	110	0	7
SV_	110	0	7	96	48	4
TAP	110	96	3
HLD	110	192	1	96
TAP	110	288	3
TAP	110	336	3
TAP	111	48	5
TAP	111	96	5
TAP	111	144	0
TAP	111	192	0
TAP	111	240	3
TAP	111	288	2
TAP	111	336	4
STR	112	0	5
SI_	112	0	5	96	48	0
TAP	112	96	2
TAP	112	192	1
TAP	112	240	1
TAP	112	288	3
TAP	112	336	0
TAP	113	48	5
TAP	113	96	5
TAP	113	144	4
TAP	113	192	3
HLD	113	288	5	288
HLD	114	0	1	192
TAP	114	336	3
TAP	114	336	4
TTP	115	48	0	B	0	M1
TTP	115	48	0	E	0	M1
TTP	115	96	6	B	0	M1
TTP	115	96	6	E	0	M1
TTP	115	144	2	B	0	M1
TTP	115	144	2	E	0	M1
TTP	115	192	4	B	0	M1
TTP	115	192	4	E	0	M1

T_REC_TAP	391
T_REC_BRK	11
T_REC_XTP	37
T_REC_HLD	26
T_REC_XHO	0
T_REC_STR	102
T_REC_BST	0
T_REC_XST	0
T_REC_TTP	48
T_REC_THO	0
T_REC_SLD	106
T_REC_ALL	721
T_NUM_TAP	578
T_NUM_BRK	11
T_NUM_HLD	26
T_NUM_SLD	106
T_NUM_ALL	721
T_JUDGE_TAP	589
T_JUDGE_HLD	101
T_JUDGE_SLD	106
T_JUDGE_ALL	796
TTM_EACHPAIRS	95
TTM_SCR_TAP	289000
TTM_SCR_BRK	28600
TTM_SCR_HLD	26000
TTM_SCR_SLD	159000
TTM_SCR_ALL	502600
TTM_SCR_S	486500
TTM_SCR_SS	501500
TTM_RAT_ACV	10021

