VERSION	0.00.00	1.03.00
FES_MODE	0
BPM_DEF	195.000	195.000	195.000	195.000
MET_DEF	4	4
RESOLUTION	384
CLK_DEF	384
COMPATIBLE_CODE	MA2

BPM	0	0	195.000
MET	0	0	4	4

TAP	4	0	6
TAP	4	96	6
TAP	4	192	0
TAP	4	288	0
TAP	5	0	7
TAP	5	96	7
TAP	5	192	0
TAP	5	192	6
TTP	6	0	7	B	0	M1
TTP	6	0	7	E	0	M1
TTP	6	96	5	E	0	M1
TTP	6	192	0	B	0	M1
TTP	6	192	1	E	0	M1
TTP	6	288	3	E	0	M1
TTP	7	0	0	E	0	M1
TTP	7	96	0	C	0	M1
TTP	7	192	4	E	0	M1
TAP	8	0	2
TAP	8	96	2
TAP	8	192	4
TAP	8	288	4
TAP	9	0	3
TAP	9	96	3
TAP	9	192	2
TAP	9	192	4
TTP	10	0	2	B	0	M1
TTP	10	0	2	E	0	M1
TTP	10	96	1	E	0	M1
TTP	10	192	5	B	0	M1
TTP	10	192	6	E	0	M1
TTP	10	288	7	E	0	M1
TTP	11	0	4	E	0	M1
TTP	11	96	0	C	0	M1
TTP	11	192	0	E	0	M1
TAP	12	0	5
TAP	12	96	5
TAP	12	192	4
TAP	12	192	6
TAP	13	0	2
TAP	13	96	2
TAP	13	192	1
TAP	13	192	3
TAP	14	0	5
TAP	14	96	4
TAP	14	192	2
TAP	14	288	3
STR	15	0	4
SXL	15	0	4	96	288	3
TAP	16	0	2
TAP	16	96	2
TAP	16	192	1
TAP	16	192	3
TAP	17	0	5
TAP	17	96	5
TAP	17	192	4
TAP	17	192	6
TAP	18	0	2
TAP	18	96	3
TAP	18	192	5
TAP	18	288	4
STR	19	0	3
SI_	19	0	3	96	144	0
STR	19	0	4
SI_	19	0	4	96	144	7
TAP	20	0	6
TAP	20	96	7
TAP	20	192	0
TAP	20	192	5
TAP	21	0	1
TAP	21	96	0
TAP	21	192	2
TAP	21	192	7
TAP	22	0	6
TAP	22	96	6
TAP	22	96	7
TAP	22	192	1
TAP	22	288	0
TAP	22	288	1
TAP	23	0	0
STR	23	0	7
SXR	23	0	7	96	288	0
TAP	24	0	1
TAP	24	96	0
TAP	24	192	2
TAP	24	192	7
TAP	25	0	6
TAP	25	96	7
TAP	25	192	0
TAP	25	192	5
TAP	26	0	1
TAP	26	96	0
TAP	26	96	1
TAP	26	192	6
TAP	26	288	6
TAP	26	288	7
TAP	27	0	0
TAP	27	0	7
TAP	27	96	1
TAP	27	96	6
BRK	27	192	2
BRK	27	192	5
TTP	28	0	6	B	0	M1
TTP	28	0	7	E	0	M1
TTP	28	192	4	B	0	M1
TTP	28	192	5	E	0	M1
TTP	29	0	3	E	0	M1
TTP	29	96	2	B	0	M1
TTP	29	192	1	B	0	M1
TTP	30	0	5	B	0	M1
TTP	30	0	5	E	0	M1
TTP	30	192	7	B	0	M1
TTP	30	192	7	E	0	M1
TTP	31	0	1	E	0	M1
TTP	31	96	1	B	0	M1
TTP	31	192	2	B	0	M1
HLD	32	0	5	192
TAP	32	96	4
TAP	32	192	4
HLD	33	0	2	192
TAP	33	96	3
TAP	33	192	3
STR	34	0	2
SCL	34	0	2	96	384	5
TAP	34	0	5
TAP	35	192	3
TAP	35	192	4
STR	36	0	6
SLL	36	0	6	96	288	2
TAP	37	192	1
STR	38	0	1
SLR	38	0	1	96	288	5
TAP	39	192	6
HLD	40	0	6	96
TAP	40	96	7
TAP	40	192	6
TAP	40	192	7
HLD	41	0	1	96
TAP	41	96	0
TAP	41	192	0
TAP	41	192	1
TAP	42	0	2
STR	42	0	5
SCR	42	0	5	96	288	2
TTP	43	192	0	C	0	M1
HLD	44	0	1	288
TAP	44	96	3
TAP	44	144	3
TAP	44	240	5
TAP	44	288	5
HLD	45	0	6	96
TAP	45	96	4
STR	45	192	3
SV_	45	192	3	96	96	0
STR	45	192	5
SCR	45	192	5	96	96	0
TAP	46	96	1
TAP	46	192	1
TAP	46	288	7
TAP	46	336	0
TAP	47	48	0
TAP	47	96	7
BRK	47	192	1
BRK	47	192	6
HLD	47	336	5	240
TAP	48	48	4
TAP	48	96	4
TAP	48	192	1
TAP	48	288	2
HLD	48	336	2	240
TAP	49	48	3
TAP	49	96	3
TAP	49	192	7
TAP	49	336	4
TAP	49	336	5
TAP	50	0	4
TAP	50	0	5
TAP	50	96	2
TAP	50	96	3
TAP	50	192	1
TAP	50	288	0
TAP	50	336	0
TAP	51	48	6
TAP	51	48	7
TAP	51	96	6
TAP	51	96	7
XTP	51	192	0
XTP	51	192	5
HLD	52	0	6	288
TAP	52	96	4
TAP	52	144	4
TAP	52	240	2
TAP	52	288	2
HLD	53	0	1	96
TAP	53	96	3
STR	53	192	2
SCL	53	192	2	96	96	7
STR	53	192	4
SV_	53	192	4	96	96	7
TAP	54	96	6
TAP	54	192	6
TAP	54	288	0
TAP	54	336	7
TAP	55	48	7
TAP	55	96	0
BRK	55	192	1
BRK	55	192	6
HLD	55	336	2	240
TAP	56	48	3
TAP	56	96	3
TAP	56	192	6
TAP	56	288	5
HLD	56	336	5	240
TAP	57	48	4
TAP	57	96	4
TAP	57	192	0
TAP	57	336	2
TAP	57	336	3
TAP	58	0	2
TAP	58	0	3
TAP	58	96	0
TAP	58	96	1
TAP	58	144	0
TAP	58	144	1
TAP	58	240	2
TAP	58	240	7
TTP	58	336	0	C	1	M1
TTP	58	336	1	B	0	M1
TTP	58	336	2	B	0	M1
TTP	58	336	5	B	0	M1
TTP	58	336	6	B	0	M1
XHO	60	0	7	336
XST	60	336	5
SUR	60	336	5	96	240	3
HLD	62	0	6	336
STR	62	336	4
SUL	62	336	4	96	240	6
TAP	64	0	5
TAP	64	96	5
TAP	64	192	4
TAP	64	288	4
TAP	65	0	3
TAP	65	96	3
TAP	65	192	2
TAP	65	288	2
TAP	66	0	4
TAP	66	96	3
XTP	66	192	2
XTP	66	192	5
XTP	66	240	2
XTP	66	240	5
TTP	66	336	0	C	1	M1
XST	68	0	4
SCR	68	0	4	96	864	3
STR	72	0	4
SCR	72	0	4	96	864	3
TAP	76	0	3
HLD	76	0	4	1152
TAP	76	96	3
TAP	76	192	3
TAP	76	288	3
TAP	77	0	3
TAP	77	96	3
TAP	77	192	3
TAP	77	288	3
TAP	78	0	3
TAP	78	96	3
TAP	78	192	3
TAP	78	288	3
TAP	79	0	3
TAP	79	96	4
TAP	79	192	2
TAP	79	192	5
XTP	80	0	0
TAP	80	96	0
TAP	80	192	7
TAP	80	288	7
TAP	81	0	1
TAP	81	96	1
TAP	81	192	6
TAP	81	288	6
STR	82	0	0
SCR	82	0	0	96	144	3
STR	82	0	7
SCL	82	0	7	96	144	4
TTP	83	0	0	C	0	M1
HLD	84	0	5	288
TAP	84	96	7
TAP	84	144	7
TAP	84	240	1
TAP	84	288	1
HLD	85	0	2	96
TAP	85	96	0
STR	85	192	1
SCR	85	192	1	96	96	4
STR	85	192	7
SV_	85	192	7	96	96	4
TAP	86	96	5
TAP	86	192	5
TAP	86	288	1
TAP	86	336	7
TAP	87	48	6
TAP	87	96	0
BRK	87	192	1
BRK	87	192	5
HLD	87	336	6	240
TAP	88	48	7
TAP	88	96	7
TAP	88	192	2
TAP	88	288	1
HLD	88	336	1	240
TAP	89	48	0
TAP	89	96	0
TAP	89	192	4
TAP	89	336	6
TAP	89	336	7
TAP	90	0	6
TAP	90	0	7
TAP	90	96	0
TAP	90	96	1
TAP	90	192	2
TAP	90	288	3
TAP	90	336	3
TAP	91	48	4
TAP	91	48	5
TAP	91	96	4
TAP	91	96	5
XTP	91	192	3
XTP	91	192	6
HLD	92	0	2	288
TAP	92	96	0
TAP	92	144	0
TAP	92	240	6
TAP	92	288	6
HLD	93	0	5	96
TAP	93	96	7
STR	93	192	0
SV_	93	192	0	96	96	3
STR	93	192	6
SCL	93	192	6	96	96	3
TAP	94	96	2
TAP	94	192	2
TAP	94	288	6
TAP	94	336	0
TAP	95	48	1
TAP	95	96	7
BRK	95	192	2
BRK	95	192	6
HLD	95	336	1	240
TAP	96	48	0
TAP	96	96	0
TAP	96	192	5
TAP	96	288	6
HLD	96	336	6	240
TAP	97	48	7
TAP	97	96	7
TAP	97	192	3
TAP	97	336	0
TAP	97	336	1
TAP	98	0	0
TAP	98	0	1
TAP	98	96	2
TAP	98	96	3
TAP	98	144	2
TAP	98	144	3
TAP	98	240	1
TAP	98	240	4
TTP	98	336	0	C	1	M1
TTP	98	336	1	B	0	M1
TTP	98	336	2	B	0	M1
TTP	98	336	5	B	0	M1
TTP	98	336	6	B	0	M1
TAP	100	0	6
TAP	100	96	6
TAP	100	96	7
TAP	100	192	1
TAP	100	288	0
TAP	100	288	1
TAP	101	0	6
TAP	101	96	6
TAP	101	96	7
TAP	101	192	0
TAP	101	192	5
TTP	102	0	7	B	0	M1
TTP	102	0	7	E	0	M1
TTP	102	96	5	E	0	M1
TTP	102	192	0	B	0	M1
TTP	102	192	1	E	0	M1
TTP	102	288	3	E	0	M1
TTP	103	0	0	E	0	M1
TTP	103	96	0	C	0	M1
TTP	103	192	4	E	0	M1
TAP	104	0	2
TAP	104	96	2
TAP	104	96	3
TAP	104	192	5
TAP	104	288	4
TAP	104	288	5
TAP	105	0	2
TAP	105	96	2
TAP	105	96	3
TAP	105	192	1
TAP	105	192	4
TTP	106	0	2	B	0	M1
TTP	106	0	2	E	0	M1
TTP	106	96	1	E	0	M1
TTP	106	192	5	B	0	M1
TTP	106	192	6	E	0	M1
TTP	106	288	7	E	0	M1
TTP	107	0	4	E	0	M1
TTP	107	96	0	C	0	M1
TTP	107	192	0	E	0	M1
TAP	108	0	6
TAP	108	96	6
TAP	108	96	7
TAP	108	192	1
TAP	108	288	0
TAP	108	288	1
TAP	109	0	6
TAP	109	96	6
TAP	109	96	7
TAP	109	192	0
TAP	109	192	5
TTP	110	0	7	B	0	M1
TTP	110	0	7	E	0	M1
TTP	110	96	5	E	0	M1
TTP	110	192	0	B	0	M1
TTP	110	192	1	E	0	M1
TTP	110	288	3	E	0	M1
TTP	111	0	0	E	0	M1
TTP	111	96	0	C	0	M1
TTP	111	192	4	E	0	M1
TAP	112	0	2
TAP	112	96	2
TAP	112	96	3
TAP	112	192	5
TAP	112	288	4
TAP	112	288	5
TAP	113	0	2
TAP	113	96	2
TAP	113	96	3
TAP	113	192	1
TAP	113	192	4
TTP	114	0	1	E	0	M1
TTP	114	0	7	E	0	M1
TTP	114	96	2	E	0	M1
TTP	114	96	6	E	0	M1
TTP	114	192	3	E	0	M1
TTP	114	192	5	E	0	M1
TTP	115	0	0	E	0	M1
TTP	115	96	0	C	0	M1
TTP	115	192	4	E	0	M1

T_REC_TAP	284
T_REC_BRK	10
T_REC_XTP	9
T_REC_HLD	22
T_REC_XHO	1
T_REC_STR	20
T_REC_BST	0
T_REC_XST	2
T_REC_TTP	81
T_REC_THO	0
T_REC_SLD	22
T_REC_ALL	451
T_NUM_TAP	396
T_NUM_BRK	10
T_NUM_HLD	23
T_NUM_SLD	22
T_NUM_ALL	451
T_JUDGE_TAP	406
T_JUDGE_HLD	122
T_JUDGE_SLD	22
T_JUDGE_ALL	550
TTM_EACHPAIRS	75
TTM_SCR_TAP	198000
TTM_SCR_BRK	26000
TTM_SCR_HLD	23000
TTM_SCR_SLD	33000
TTM_SCR_ALL	280000
TTM_SCR_S	270650
TTM_SCR_SS	279000
TTM_RAT_ACV	10035

