VERSION	0.00.00	1.03.00
FES_MODE	0
BPM_DEF	195.000	195.000	195.000	195.000
MET_DEF	4	4
RESOLUTION	384
CLK_DEF	384
COMPATIBLE_CODE	MA2

BPM	0	0	195.000
MET	0	0	4	4

XTP	4	0	2
TAP	4	96	2
TAP	4	192	3
TAP	5	0	5
TAP	5	96	5
TAP	5	192	4
TAP	6	0	2
TAP	6	96	2
TAP	6	192	3
TAP	6	288	3
TAP	7	0	4
TAP	7	96	4
TAP	7	192	3
TAP	7	192	5
TAP	8	0	6
TAP	8	96	6
TAP	8	192	7
TAP	9	0	1
TAP	9	96	1
TAP	9	192	0
TAP	10	0	6
TAP	10	96	6
TAP	10	192	7
TAP	10	288	7
TAP	11	0	0
TAP	11	96	7
BRK	11	192	1
BRK	11	192	6
HLD	12	0	5	192
TAP	12	192	4
HLD	13	0	2	192
TAP	13	192	3
HLD	14	0	5	192
TAP	14	192	4
HLD	15	0	2	96
HLD	15	0	3	96
TAP	15	192	2
TAP	15	192	3
HLD	16	0	1	192
TAP	16	192	0
HLD	17	0	6	192
TAP	17	192	7
HLD	18	0	1	192
TAP	18	192	0
TAP	19	0	7
TAP	19	96	7
TAP	19	192	0
TAP	19	192	6
TAP	20	0	5
TAP	20	96	5
TAP	20	192	4
TAP	21	0	2
TAP	21	96	2
TAP	21	192	3
TAP	22	0	5
TAP	22	96	5
TAP	22	192	4
TAP	23	0	3
TAP	23	96	3
TAP	23	192	2
TAP	23	192	4
TAP	24	0	1
TAP	24	96	1
TAP	24	192	0
TAP	25	0	6
TAP	25	96	6
TAP	25	192	7
TAP	26	0	0
TAP	26	96	0
TAP	26	192	7
TAP	26	288	7
XTP	27	0	1
XTP	27	0	6
TTP	28	0	1	B	0	L1
TTP	28	0	1	E	0	L1
TTP	29	0	2	B	0	L1
TTP	30	0	6	B	0	L1
TTP	30	0	7	E	0	L1
TTP	31	0	5	B	0	L1
TTP	32	0	3	B	0	L1
TTP	32	192	2	B	0	L1
TTP	33	0	1	B	0	L1
TTP	34	0	7	B	0	L1
TTP	34	192	6	B	0	L1
TTP	35	0	0	C	1	L1
XST	36	0	1
SI_	36	0	1	96	192	4
STR	37	0	5
SI_	37	0	5	96	192	0
STR	38	0	1
SI_	38	0	1	96	192	4
STR	39	0	5
SI_	39	0	5	96	192	0
TAP	40	0	1
TAP	40	192	1
TAP	41	0	2
TAP	41	192	2
STR	42	0	3
SI_	42	0	3	96	192	0
STR	42	0	4
SI_	42	0	4	96	192	7
TTP	43	0	0	C	1	L1
TAP	44	0	1
TAP	44	96	1
TAP	44	192	0
TAP	44	192	1
TAP	44	288	0
TAP	44	288	1
TAP	45	0	6
TAP	45	96	6
TAP	45	192	6
TAP	45	192	7
TAP	45	288	6
TAP	45	288	7
TAP	46	0	5
TAP	46	96	5
TAP	46	192	4
TAP	46	288	4
TAP	47	0	3
TAP	47	96	3
TAP	47	192	2
TAP	47	192	4
XTP	48	0	1
XTP	48	96	1
XTP	48	192	0
XTP	48	192	1
XTP	49	0	6
XTP	49	96	6
XTP	49	192	6
XTP	49	192	7
TAP	50	0	0
TAP	50	96	0
TAP	50	192	7
TAP	50	288	7
TAP	51	0	0
TAP	51	0	7
TAP	51	96	0
TAP	51	96	7
XTP	51	192	1
XTP	51	192	6
TAP	52	0	5
TAP	52	96	5
TAP	52	192	4
TAP	52	192	5
TAP	52	288	4
TAP	52	288	5
TAP	53	0	2
TAP	53	96	2
TAP	53	192	2
TAP	53	192	3
TAP	53	288	2
TAP	53	288	3
TAP	54	0	1
TAP	54	96	1
TAP	54	192	0
TAP	54	288	0
TAP	55	0	7
TAP	55	96	7
TAP	55	192	0
TAP	55	192	6
XTP	56	0	5
XTP	56	96	5
XTP	56	192	4
XTP	56	192	5
XTP	57	0	2
XTP	57	96	2
XTP	57	192	2
XTP	57	192	3
TAP	58	0	4
TAP	58	96	4
TAP	58	192	3
TAP	58	288	3
TAP	59	0	3
TAP	59	0	4
TAP	59	96	3
TAP	59	96	4
BRK	59	192	2
BRK	59	192	5
STR	60	0	3
SXR	60	0	3	96	480	0
STR	60	0	4
SXL	60	0	4	96	480	7
STR	62	0	0
SXL	62	0	0	96	480	3
STR	62	0	7
SXR	62	0	7	96	480	4
TAP	64	0	2
TAP	64	192	2
TAP	65	0	3
TAP	65	192	3
TAP	66	0	4
HLD	66	192	3	144
HLD	66	192	4	144
STR	68	0	4
SCR	68	0	4	96	1056	3
STR	72	0	3
SCL	72	0	3	96	1056	4
HLD	76	0	5	384
HLD	77	0	4	384
HLD	78	0	3	384
XTP	79	0	2
TAP	80	0	1
TAP	80	192	1
TAP	81	0	0
TAP	81	192	0
TAP	82	0	7
TAP	82	192	7
XTP	83	0	0
XTP	83	0	7
BRK	84	0	6
TAP	84	96	6
TAP	84	192	6
TAP	84	192	7
TAP	84	288	6
TAP	84	288	7
TAP	85	0	1
TAP	85	96	1
TAP	85	192	0
TAP	85	192	1
TAP	85	288	0
TAP	85	288	1
TAP	86	0	2
TAP	86	96	2
TAP	86	192	3
TAP	86	288	3
TAP	87	0	4
TAP	87	96	4
TAP	87	192	3
TAP	87	192	5
TAP	88	0	6
TAP	88	96	7
TAP	88	192	6
TAP	88	192	7
TAP	89	0	1
TAP	89	96	0
TAP	89	192	0
TAP	89	192	1
TAP	90	0	7
TAP	90	96	7
TAP	90	192	0
TAP	90	288	0
TAP	91	0	0
TAP	91	0	7
TAP	91	96	0
TAP	91	96	7
XTP	91	192	1
XTP	91	192	6
TAP	92	0	2
TAP	92	96	2
TAP	92	192	2
TAP	92	192	3
TAP	92	288	2
TAP	92	288	3
TAP	93	0	5
TAP	93	96	5
TAP	93	192	4
TAP	93	192	5
TAP	93	288	4
TAP	93	288	5
TAP	94	0	6
TAP	94	96	6
TAP	94	192	7
TAP	94	288	7
TAP	95	0	0
TAP	95	96	0
TAP	95	192	1
TAP	95	192	7
TAP	96	0	2
TAP	96	96	3
TAP	96	192	2
TAP	96	192	3
TAP	97	0	5
TAP	97	96	4
TAP	97	192	4
TAP	97	192	5
TAP	98	0	3
TAP	98	96	3
TAP	98	192	4
TAP	98	288	4
TAP	99	0	3
TAP	99	0	4
TAP	99	96	3
TAP	99	96	4
BRK	99	192	2
BRK	99	192	5
TAP	100	0	6
TAP	100	96	6
TAP	100	192	7
TAP	101	0	1
TAP	101	96	1
TAP	101	192	0
TAP	102	0	6
TAP	102	96	6
TAP	102	192	7
TAP	102	288	7
TAP	103	0	0
TAP	103	96	0
TAP	103	192	1
TAP	103	192	7
TAP	104	0	2
TAP	104	96	2
TAP	104	192	3
TAP	105	0	5
TAP	105	96	5
TAP	105	192	4
TAP	106	0	2
TAP	106	96	2
TAP	106	192	3
TAP	106	288	3
TAP	107	0	4
TAP	107	96	4
TAP	107	192	3
TAP	107	192	5
TAP	108	0	2
TAP	108	96	2
TAP	108	192	3
TAP	109	0	5
TAP	109	96	5
TAP	109	192	4
TAP	110	0	2
TAP	110	96	2
TAP	110	192	3
TAP	110	288	3
TAP	111	0	4
TAP	111	96	4
TAP	111	192	3
TAP	111	192	5
TAP	112	0	6
TAP	112	96	6
TAP	112	192	7
TAP	113	0	1
TAP	113	96	1
TAP	113	192	0
XST	114	0	0
SXL	114	0	0	96	480	3
XST	114	0	7
SXR	114	0	7	96	480	4

T_REC_TAP	250
T_REC_BRK	7
T_REC_XTP	26
T_REC_HLD	13
T_REC_XHO	0
T_REC_STR	11
T_REC_BST	0
T_REC_XST	3
T_REC_TTP	13
T_REC_THO	0
T_REC_SLD	14
T_REC_ALL	337
T_NUM_TAP	303
T_NUM_BRK	7
T_NUM_HLD	13
T_NUM_SLD	14
T_NUM_ALL	337
T_JUDGE_TAP	310
T_JUDGE_HLD	58
T_JUDGE_SLD	14
T_JUDGE_ALL	382
TTM_EACHPAIRS	56
TTM_SCR_TAP	151500
TTM_SCR_BRK	18200
TTM_SCR_HLD	13000
TTM_SCR_SLD	21000
TTM_SCR_ALL	203700
TTM_SCR_S	196950
TTM_SCR_SS	203000
TTM_RAT_ACV	10034

