VERSION	0.00.00	1.03.00
FES_MODE	0
BPM_DEF	195.000	195.000	195.000	195.000
MET_DEF	4	4
RESOLUTION	384
CLK_DEF	384
COMPATIBLE_CODE	MA2

BPM	0	0	195.000
MET	0	0	4	4

XTP	4	0	0
TAP	5	0	0
TAP	6	0	0
TAP	8	0	7
TAP	9	0	7
TAP	10	0	7
XTP	11	0	0
XTP	11	0	7
TAP	12	0	0
TAP	12	192	0
TAP	13	0	0
TAP	14	0	1
TAP	15	0	1
TAP	16	0	2
TAP	16	192	2
TAP	17	0	2
TAP	18	0	3
TAP	19	0	3
TAP	19	0	4
TAP	20	0	4
TAP	20	192	4
TAP	21	0	4
TAP	22	0	5
TAP	22	192	5
TAP	23	0	5
TAP	24	0	6
TAP	24	192	6
TAP	25	0	6
TAP	26	0	7
TAP	26	192	7
XTP	27	0	0
XTP	27	0	7
STR	28	0	0
SI_	28	0	0	96	672	3
STR	32	0	7
SI_	32	0	7	96	672	4
STR	36	0	0
SI_	36	0	0	96	672	4
STR	40	0	7
SI_	40	0	7	96	672	3
BRK	44	0	0
TAP	44	192	0
TAP	45	0	1
TAP	45	96	1
TAP	45	192	1
TAP	46	0	2
TAP	46	192	2
TAP	47	0	3
TAP	47	96	3
TAP	47	192	3
TAP	48	0	4
TAP	48	192	4
TAP	49	0	5
TAP	49	96	5
TAP	49	192	5
TAP	50	0	6
TAP	50	192	6
TAP	51	0	7
TAP	51	96	7
XTP	51	192	0
XTP	51	192	7
XTP	52	0	7
TAP	52	192	7
TAP	53	0	6
TAP	53	96	6
TAP	53	192	6
TAP	54	0	5
TAP	54	192	5
TAP	55	0	4
TAP	55	96	4
XTP	55	192	4
TAP	56	0	3
TAP	56	192	3
TAP	57	0	2
TAP	57	96	2
TAP	57	192	2
TAP	58	0	1
TAP	58	192	1
XTP	59	0	0
XTP	59	0	7
HLD	60	0	0	384
HLD	62	0	1	384
HLD	64	0	2	384
HLD	66	0	3	384
HLD	66	0	4	384
TTP	68	0	4	B	0	L1
TTP	69	0	5	B	0	L1
TTP	70	0	6	B	0	L1
TTP	72	0	3	B	0	L1
TTP	73	0	2	B	0	L1
TTP	74	0	1	B	0	L1
TTP	76	0	4	B	0	L1
TTP	76	0	5	B	0	L1
TTP	78	0	2	B	0	L1
TTP	78	0	3	B	0	L1
TTP	80	0	3	B	0	L1
TTP	80	0	4	B	0	L1
THO	82	0	0	384	C	0	L1
BRK	84	0	7
TAP	84	96	7
TAP	84	192	7
TAP	85	0	6
TAP	85	192	6
TAP	86	0	5
TAP	86	96	5
TAP	86	192	5
TAP	87	0	3
TAP	87	0	4
XTP	87	192	3
XTP	87	192	4
TAP	88	0	3
TAP	88	96	3
TAP	88	192	3
TAP	89	0	2
TAP	89	192	2
TAP	90	0	1
TAP	90	96	1
TAP	90	192	1
TAP	91	0	0
XTP	91	192	0
XTP	91	192	7
XTP	92	0	0
TAP	92	96	0
TAP	92	192	0
TAP	93	0	1
TAP	93	96	1
TAP	93	192	1
TAP	94	0	2
TAP	94	96	2
TAP	94	192	2
TAP	95	0	3
TAP	95	0	4
XTP	95	192	3
XTP	95	192	4
TAP	96	0	5
TAP	96	96	5
TAP	96	192	5
TAP	97	0	6
TAP	97	96	6
TAP	97	192	6
TAP	98	0	7
TAP	98	96	7
TAP	98	192	0
TAP	98	192	7
XTP	99	0	0
XTP	99	0	7
HLD	100	0	6	192
TAP	101	0	6
TAP	101	192	6
HLD	102	0	5	192
TAP	103	0	5
TAP	103	192	5
HLD	104	0	4	192
TAP	105	0	4
TAP	105	192	4
HLD	106	0	3	192
HLD	106	0	4	192
TAP	107	0	3
TAP	107	0	4
TAP	107	192	3
TAP	107	192	4
HLD	108	0	2	192
TAP	109	0	2
TAP	109	192	2
HLD	110	0	1	192
TAP	111	0	1
TAP	111	192	1
HLD	112	0	0	192
TAP	113	0	0
TAP	113	192	0
HLD	114	0	0	576
HLD	114	0	7	576

T_REC_TAP	114
T_REC_BRK	2
T_REC_XTP	20
T_REC_HLD	15
T_REC_XHO	0
T_REC_STR	4
T_REC_BST	0
T_REC_XST	0
T_REC_TTP	12
T_REC_THO	1
T_REC_SLD	4
T_REC_ALL	172
T_NUM_TAP	150
T_NUM_BRK	2
T_NUM_HLD	16
T_NUM_SLD	4
T_NUM_ALL	172
T_JUDGE_TAP	152
T_JUDGE_HLD	104
T_JUDGE_SLD	4
T_JUDGE_ALL	260
TTM_EACHPAIRS	17
TTM_SCR_TAP	75000
TTM_SCR_BRK	5200
TTM_SCR_HLD	16000
TTM_SCR_SLD	6000
TTM_SCR_ALL	102200
TTM_SCR_S	98950
TTM_SCR_SS	102000
TTM_RAT_ACV	10019

