VERSION	0.00.00	1.03.00
FES_MODE	0
BPM_DEF	140.000	140.000	140.000	140.000
MET_DEF	4	4
RESOLUTION	384
CLK_DEF	384
COMPATIBLE_CODE	MA2

BPM	0	0	140.000
MET	0	0	4	4

TTP	1	288	0	C	0	M1
HLD	2	0	2	72
HLD	2	72	3	72
TAP	2	144	4
TAP	2	240	3
TAP	2	240	5
TAP	2	288	4
TAP	2	336	5
HLD	3	0	6	72
HLD	3	72	5	72
TAP	3	144	4
TAP	3	240	2
TAP	3	240	4
TAP	3	288	3
TAP	3	336	2
HLD	4	0	1	72
HLD	4	72	2	72
TAP	4	144	3
HLD	4	192	6	72
HLD	4	264	5	72
TAP	4	336	4
HLD	5	0	1	72
HLD	5	72	2	72
HLD	5	144	3	240
TTP	5	240	1	E	0	M1
TTP	5	288	7	E	0	M1
TTP	5	336	3	E	0	M1
TTP	6	0	5	E	0	M1
TAP	6	48	3
TAP	6	96	4
TAP	6	144	5
TAP	6	192	6
TAP	6	240	7
TAP	6	288	0
TAP	6	336	1
TAP	7	0	2
TAP	7	0	4
TAP	7	48	3
TAP	7	96	3
TAP	7	96	5
TAP	7	144	4
TAP	7	192	2
TAP	7	192	4
TAP	7	240	1
TAP	7	288	0
TAP	7	288	7
TAP	7	336	6
HLD	8	0	6	48
TAP	8	48	4
TAP	8	72	6
TAP	8	144	1
HLD	8	192	1	48
TAP	8	240	3
TAP	8	264	1
TAP	8	336	6
STR	9	0	6
SCL	9	0	6	96	48	3
STR	9	96	1
SUR	9	96	1	96	48	5
STR	9	192	7
SI_	9	192	7	96	48	3
STR	9	288	2
SCL	9	288	2	96	288	5
HLD	10	0	4	48
HLD	10	96	4	48
HLD	10	192	4	48
TAP	10	288	4
TAP	10	336	4
TAP	11	0	3
TAP	11	0	5
TAP	11	48	3
TAP	11	96	2
TAP	11	96	4
TAP	11	144	4
STR	11	192	3
SI_	11	192	3	96	48	1
TAP	11	192	5
TAP	11	288	4
HLD	12	0	2	48
HLD	12	0	4	48
HLD	12	96	3	48
HLD	12	96	5	48
HLD	12	192	2	48
HLD	12	192	4	48
TAP	12	288	3
TAP	12	288	5
TAP	12	336	3
TAP	12	336	5
TAP	13	0	2
TAP	13	48	3
TAP	13	96	4
TAP	13	144	5
TAP	13	192	6
XTP	13	240	0
XTP	13	240	7
XTP	13	288	1
XTP	13	288	6
HLD	14	0	6	72
HLD	14	72	5	72
TAP	14	144	4
TAP	14	192	3
TAP	14	192	5
TAP	14	240	3
TAP	14	288	2
TAP	14	288	4
TAP	14	336	4
HLD	15	0	1	72
HLD	15	72	2	72
TAP	15	144	3
TAP	15	192	2
TAP	15	192	4
TAP	15	240	4
TAP	15	288	3
TAP	15	288	5
TAP	15	336	3
TAP	16	0	4
HLD	16	0	6	72
HLD	16	72	5	72
TAP	16	144	4
HLD	16	192	1	72
TAP	16	192	3
HLD	16	264	2	72
TAP	16	336	3
TAP	17	0	4
HLD	17	0	6	72
HLD	17	72	5	72
HLD	17	144	4	240
TTP	17	240	7	E	0	M1
TTP	17	288	1	E	0	M1
TTP	17	336	5	E	0	M1
TTP	18	0	3	E	0	M1
TAP	18	48	4
TAP	18	96	5
TAP	18	144	6
TAP	18	192	7
TAP	18	240	0
TAP	18	288	1
TAP	18	336	2
STR	19	0	3
SI_	19	0	3	96	48	1
TAP	19	48	3
STR	19	96	4
SI_	19	96	4	96	48	6
TAP	19	144	4
STR	19	192	3
SI_	19	192	3	96	48	0
TAP	19	240	3
TAP	19	288	4
TAP	19	336	5
HLD	20	0	6	48
TAP	20	48	7
TAP	20	72	6
TAP	20	144	2
TAP	20	144	4
HLD	20	192	1	48
TAP	20	240	0
TAP	20	264	1
TAP	20	336	3
TAP	20	336	5
STR	21	0	6
SI_	21	0	6	96	48	2
TAP	21	48	6
TAP	21	96	7
TAP	21	144	7
STR	21	192	0
SCR	21	192	0	96	48	3
STR	21	192	4
SCR	21	192	4	96	48	7
STR	22	0	1
SI_	22	0	1	96	48	5
TAP	22	0	5
TAP	22	96	0
TAP	22	96	1
TAP	22	192	3
TAP	22	192	6
TAP	22	264	1
TAP	22	264	4
HLD	22	336	3	336
TAP	22	336	7
TAP	23	0	0
TAP	23	48	0
TAP	23	96	6
TAP	23	144	6
STR	23	192	1
SI_	23	192	1	96	48	6
XTP	23	288	1
BST	24	0	0
SI_	24	0	0	96	48	3
TAP	24	0	5
XTP	24	96	0
XTP	24	96	7
TAP	24	144	6
TAP	24	192	4
TAP	24	192	6
TAP	24	240	3
TAP	24	288	1
TAP	24	288	3
TAP	24	336	0
TAP	25	0	0
TAP	25	0	7
STR	25	48	6
SI_	25	48	6	96	48	3
STR	25	96	2
SI_	25	96	2	96	48	7
XTP	25	144	6
XTP	25	192	2
TAP	25	240	4
TAP	25	288	0
TAP	25	288	5
TAP	25	336	1
TAP	25	336	6
TAP	26	0	2
STR	26	0	7
SI_	26	0	7	96	48	4
XTP	26	96	0
XTP	26	96	7
TAP	26	144	1
TAP	26	192	1
TAP	26	192	3
TAP	26	240	4
TAP	26	288	4
TAP	26	288	6
TAP	26	336	7
TAP	27	0	0
TAP	27	0	7
STR	27	48	1
SI_	27	48	1	96	48	5
STR	27	96	4
SCR	27	96	4	96	48	7
XTP	27	144	1
XTP	27	192	4
TAP	27	288	0
TAP	27	288	1
TAP	27	336	2
TAP	27	336	7
TAP	28	0	3
HLD	28	0	6	96
TAP	28	96	7
TAP	28	144	0
TAP	28	144	5
STR	28	192	1
SCR	28	192	1	96	48	4
TAP	28	192	4
TAP	28	240	0
TAP	28	288	7
TAP	28	336	6
TAP	29	0	4
TAP	29	0	5
TAP	29	48	0
TAP	29	96	2
TAP	29	96	3
TAP	29	144	7
TAP	29	192	4
TAP	29	192	5
TAP	29	240	0
TAP	29	288	2
TAP	29	288	3
XTP	29	336	7
XST	30	0	0
SI_	30	0	0	96	48	4
XTP	30	0	7
TAP	30	96	5
TAP	30	144	6
TAP	30	192	0
STR	30	192	7
SXR	30	192	7	96	192	2
TAP	30	288	3
HLD	30	336	3	336
STR	31	192	1
SI_	31	192	1	96	48	6
XTP	31	288	1
BST	32	0	0
SI_	32	0	0	96	48	3
TAP	32	0	5
XTP	32	96	0
XTP	32	96	7
TAP	32	144	6
TAP	32	192	5
TAP	32	192	7
TAP	32	240	2
TAP	32	288	1
TAP	32	288	3
TAP	32	336	5
TAP	33	0	4
TAP	33	0	6
STR	33	48	6
SI_	33	48	6	96	48	2
STR	33	96	3
SCL	33	96	3	96	48	0
XTP	33	144	6
XTP	33	192	3
TAP	33	240	4
TAP	33	288	3
TAP	33	288	5
TAP	33	336	2
TAP	33	336	6
TAP	34	0	1
STR	34	0	7
SI_	34	0	7	96	48	4
XTP	34	96	0
XTP	34	96	7
TAP	34	144	1
TAP	34	192	0
TAP	34	192	2
TAP	34	240	5
TAP	34	288	4
TAP	34	288	6
TAP	34	336	2
TAP	35	0	1
TAP	35	0	3
STR	35	48	6
SLL	35	48	6	96	96	0
STR	35	96	1
SI_	35	96	1	96	48	3
XTP	35	144	6
XTP	35	192	1
TAP	35	288	6
TAP	35	288	7
TAP	35	336	0
TAP	35	336	5
HLD	36	0	1	96
TAP	36	0	4
TAP	36	96	0
TAP	36	144	2
TAP	36	144	7
TAP	36	192	3
STR	36	192	6
SCL	36	192	6	96	48	3
TAP	36	240	7
TAP	36	288	0
TAP	36	336	1
TAP	37	0	2
TAP	37	0	3
TAP	37	48	7
TAP	37	96	4
TAP	37	96	5
TAP	37	144	0
TAP	37	192	2
TAP	37	192	3
TAP	37	240	7
XTP	37	288	4
XTP	37	288	5
XTP	37	336	2
XTP	37	336	3
XTP	38	0	0
XTP	38	0	1
TAP	38	48	6
TAP	38	72	7
XTP	38	96	6
TAP	38	144	0
HLD	38	144	5	48
XTP	38	192	4
HLD	38	240	1	48
TAP	38	240	3
XTP	38	288	2
XTP	38	336	0
XHO	38	336	7	96
TAP	39	48	3
TAP	39	72	3
TAP	39	96	7
TAP	39	144	4
TAP	39	168	4
STR	39	192	0
SF_	39	192	0	96	24	4
TTP	39	300	0	C	1	M1
HLD	40	0	2	192
TAP	40	0	6
TAP	40	48	5
TAP	40	96	4
TAP	40	144	3
HLD	40	192	4	144
TAP	40	240	3
TAP	40	288	2
HLD	40	336	1	144
TAP	41	0	0
TAP	41	48	7
HLD	41	96	6	96
TAP	41	144	5
TAP	41	192	4
TAP	41	240	3
TAP	41	240	5
TAP	41	288	2
TAP	41	288	4
TAP	41	336	1
TAP	41	336	3
HLD	42	0	0	144
TTP	42	48	1	B	0	M1
TTP	42	96	3	E	0	M1
HLD	42	144	7	144
TTP	42	192	6	B	0	M1
TTP	42	240	5	E	0	M1
HLD	42	288	2	144
TTP	42	336	2	E	0	M1
TTP	43	0	3	B	0	M1
HLD	43	48	5	144
TTP	43	96	6	E	0	M1
TTP	43	144	4	B	0	M1
HLD	43	192	3	192
TTP	43	240	2	E	0	M1
TTP	43	288	0	C	0	M1
TTP	43	336	6	E	0	M1
STR	44	0	7
SI_	44	0	7	96	48	3
TAP	44	96	0
TAP	44	96	7
TAP	44	192	3
TAP	44	192	6
TAP	44	240	1
TAP	44	240	4
TAP	44	336	3
TAP	44	336	4
TAP	45	0	3
TAP	45	0	4
TAP	45	48	2
TAP	45	72	3
TAP	45	96	1
TAP	45	144	5
TAP	45	168	4
TAP	45	192	6
TAP	45	240	0
TAP	45	264	7
XTP	45	288	0
XTP	45	336	1
XTP	45	336	6
TTP	46	0	4	B	0	M1
TTP	46	0	5	E	0	M1
TTP	46	48	2	B	0	M1
TTP	46	48	3	E	0	M1
TTP	46	96	5	B	0	M1
TTP	46	96	6	E	0	M1
TTP	46	144	1	B	0	M1
TTP	46	144	2	E	0	M1
TTP	46	192	6	B	0	M1
TTP	46	192	7	E	0	M1
TTP	46	240	0	B	0	M1
TTP	46	240	1	E	0	M1
TTP	46	288	0	E	0	M1
TTP	46	288	7	B	0	M1
THO	46	336	0	240	C	0	M1
TTP	46	336	3	B	0	M1
TTP	46	336	4	B	0	M1
STR	47	192	7
SF_	47	192	7	96	24	3
TTP	47	300	0	C	1	M1
BRK	48	0	1
BRK	48	0	5
HLD	48	144	2	240
HLD	49	0	3	144
HLD	49	144	4	144
TAP	49	288	5
HLD	50	0	4	96
HLD	50	0	6	96
HLD	50	144	3	96
HLD	50	144	5	96
HLD	50	288	2	96
HLD	50	288	4	96
HLD	51	48	1	96
HLD	51	48	3	96
TAP	51	192	2
STR	51	192	4
SI_	51	192	4	96	48	7
TAP	51	288	3
HLD	52	0	6	72
HLD	52	72	5	72
TAP	52	144	4
TAP	52	192	3
TAP	52	192	6
TAP	52	240	2
TAP	52	264	3
XTP	52	288	2
XTP	52	336	1
XTP	52	336	4
TAP	53	48	7
TAP	53	72	0
TAP	53	96	7
XHO	53	144	0	48
XHO	53	144	1	48
XHO	53	240	6	48
XHO	53	240	7	48
TAP	53	336	2
TAP	53	360	3
TAP	54	0	1
TAP	54	48	5
TAP	54	72	4
TAP	54	96	6
TAP	54	144	2
TAP	54	168	3
TAP	54	192	0
TAP	54	240	5
TAP	54	264	4
TAP	54	288	7
TAP	54	336	0
TAP	54	336	7
XTP	55	0	2
XTP	55	12	3
XTP	55	48	5
XTP	55	60	4
XTP	55	96	1
XTP	55	108	2
XTP	55	144	6
XTP	55	156	5
XST	55	192	0
SI_	55	192	0	96	48	4
XST	55	192	7
SI_	55	192	7	96	48	3
TTP	55	288	0	C	1	M1
BST	56	0	1
SCL	56	0	1	96	48	6
BRK	56	0	6
XTP	56	96	1
XTP	56	96	3
TAP	56	144	5
TAP	56	192	4
TAP	56	192	6
TAP	56	240	2
TAP	56	288	1
TAP	56	288	3
TAP	56	336	6
TAP	57	0	5
TAP	57	0	7
STR	57	48	1
SI_	57	48	1	96	48	4
STR	57	96	5
SI_	57	96	5	96	48	0
XTP	57	144	1
XTP	57	192	5
TAP	57	240	3
TAP	57	288	3
TAP	57	288	4
TAP	57	336	2
TAP	57	336	5
TAP	58	0	1
STR	58	0	6
SCR	58	0	6	96	48	1
XTP	58	96	4
XTP	58	96	6
TAP	58	144	2
TAP	58	192	1
TAP	58	192	3
TAP	58	240	4
TAP	58	240	6
STR	58	288	0
SI_	58	288	0	96	48	4
STR	58	336	7
SI_	58	336	7	96	48	3
XST	59	0	0
SCR	59	0	0	96	48	3
XST	59	48	7
SCL	59	48	7	96	48	4
XST	59	96	0
SI_	59	96	0	96	48	4
XTP	59	144	7
BRK	59	192	0
TAP	59	288	6
TAP	59	288	7
TAP	59	336	0
TAP	59	336	7
TAP	60	0	0
STR	60	0	1
SI_	60	0	1	96	48	5
STR	60	96	6
SCR	60	96	6	96	48	1
TAP	60	144	6
STR	60	192	2
SCR	60	192	2	96	48	5
TAP	60	240	2
TAP	60	288	7
TAP	60	336	7
TAP	61	0	1
TAP	61	0	6
TAP	61	48	2
TAP	61	72	3
TAP	61	96	1
TAP	61	144	5
TAP	61	168	4
TAP	61	192	6
TAP	61	240	1
TAP	61	264	0
XTP	61	288	1
XTP	61	336	2
XTP	61	336	3
XTP	62	0	4
XTP	62	0	5
TAP	62	48	6
TAP	62	72	7
XTP	62	96	6
TAP	62	144	0
HLD	62	144	5	48
XTP	62	192	4
HLD	62	240	1	48
TAP	62	240	3
XTP	62	288	2
XTP	62	336	0
XHO	62	336	7	96
TAP	63	48	3
TAP	63	72	3
TAP	63	96	7
TAP	63	144	3
HLD	63	168	3	120
STR	63	192	1
SI_	63	192	1	96	48	6
BRK	63	288	1
XTP	64	0	3
XTP	64	0	4
TAP	64	48	1
TAP	64	72	0
XTP	64	96	1
HLD	64	144	2	48
TAP	64	144	7
XTP	64	192	3
TAP	64	240	4
HLD	64	240	6	48
XTP	64	288	5
XHO	64	336	0	96
XTP	64	336	7
TAP	65	48	3
STR	65	96	1
SI_	65	96	1	96	48	6
STR	65	96	5
SI_	65	96	5	96	48	2
TAP	65	144	2
TAP	65	144	6
XTP	65	192	1
XTP	65	192	5
XTP	65	288	3
XTP	65	288	4
HLD	66	0	2	48
HLD	66	0	4	48
HLD	66	96	3	48
HLD	66	96	5	48
HLD	66	192	2	48
HLD	66	192	4	48
TAP	66	288	1
TAP	66	288	3
TAP	66	336	1
TAP	66	336	3
TAP	67	0	2
TAP	67	0	4
TAP	67	48	3
TAP	67	96	4
TAP	67	96	6
TAP	67	144	5
STR	67	192	0
SI_	67	192	0	96	48	4
TAP	67	192	6
XTP	67	288	0
XTP	67	288	7
HLD	68	0	3	48
HLD	68	0	5	48
HLD	68	96	2	48
HLD	68	96	4	48
HLD	68	192	3	48
HLD	68	192	5	48
TAP	68	288	4
TAP	68	288	6
TAP	68	336	4
TAP	68	336	6
TAP	69	0	3
TAP	69	0	5
TAP	69	48	4
TAP	69	96	1
TAP	69	96	3
TAP	69	144	2
TAP	69	192	1
XTP	69	240	0
XTP	69	240	7
XTP	69	288	1
XTP	69	288	6
HLD	70	0	2	96
HLD	70	0	4	96
HLD	70	144	3	144
HLD	70	144	5	144
TAP	70	336	2
TAP	70	360	3
HLD	71	0	2	96
HLD	71	144	1	96
HLD	71	144	3	96
TAP	71	288	2
TAP	71	288	4
HLD	72	0	3	96
HLD	72	0	5	96
HLD	72	144	2	144
HLD	72	144	4	144
TAP	72	336	5
TAP	72	360	4
HLD	73	0	5	96
TAP	73	144	4
TAP	73	144	6
STR	73	192	5
SI_	73	192	5	96	48	3
TAP	73	288	2

T_REC_TAP	361
T_REC_BRK	5
T_REC_XTP	80
T_REC_HLD	92
T_REC_XHO	7
T_REC_STR	44
T_REC_BST	3
T_REC_XST	6
T_REC_TTP	39
T_REC_THO	1
T_REC_SLD	53
T_REC_ALL	691
T_NUM_TAP	530
T_NUM_BRK	8
T_NUM_HLD	100
T_NUM_SLD	53
T_NUM_ALL	691
T_JUDGE_TAP	538
T_JUDGE_HLD	204
T_JUDGE_SLD	53
T_JUDGE_ALL	795
TTM_EACHPAIRS	155
TTM_SCR_TAP	265000
TTM_SCR_BRK	20800
TTM_SCR_HLD	100000
TTM_SCR_SLD	79500
TTM_SCR_ALL	465300
TTM_SCR_S	450600
TTM_SCR_SS	464500
TTM_RAT_ACV	10017

