VERSION	0.00.00	1.03.00
FES_MODE	0
BPM_DEF	140.000	140.000	140.000	140.000
MET_DEF	4	4
RESOLUTION	384
CLK_DEF	384
COMPATIBLE_CODE	MA2

BPM	0	0	140.000
MET	0	0	4	4

XTP	2	0	2
HLD	2	96	2	288
TAP	2	288	3
TAP	3	0	5
HLD	3	96	5	288
TAP	3	288	4
STR	4	0	1
SI_	4	0	1	96	72	3
STR	4	192	6
SI_	4	192	6	96	72	4
STR	5	0	1
SUR	5	0	1	96	240	4
HLD	6	0	6	192
TAP	6	96	5
TAP	6	192	4
HLD	7	0	1	192
TAP	7	96	2
TAP	7	192	3
STR	8	0	4
SI_	8	0	4	96	72	6
STR	8	192	3
SI_	8	192	3	96	72	1
STR	9	0	5
SCR	9	0	5	96	144	2
TAP	10	0	1
TAP	10	48	1
HLD	10	96	3	96
TAP	10	192	2
TAP	10	288	1
TAP	10	288	4
TTP	11	0	7	E	0	M1
TTP	11	96	4	B	0	M1
TTP	11	96	5	E	0	M1
TTP	11	192	1	E	0	M1
TTP	11	288	3	B	0	M1
TTP	11	288	3	E	0	M1
TAP	12	0	6
TAP	12	48	6
HLD	12	96	4	96
TAP	12	192	5
TAP	12	288	3
TAP	12	288	6
TTP	13	0	1	E	0	M1
TTP	13	96	3	B	0	M1
TTP	13	96	3	E	0	M1
TTP	13	192	0	C	0	M1
XTP	13	288	0
XTP	13	288	7
HLD	14	0	5	384
TAP	14	96	4
TAP	14	192	4
TAP	14	288	3
HLD	15	0	2	384
TAP	15	96	3
TAP	15	192	3
TAP	15	288	4
HLD	16	0	6	192
TAP	16	96	4
HLD	16	192	1	192
TAP	16	288	3
HLD	17	0	6	192
STR	17	96	4
SUL	17	96	4	96	168	2
TAP	18	0	6
TAP	18	96	4
TAP	18	96	5
TAP	18	192	7
TAP	18	288	4
TAP	18	288	6
TAP	19	0	1
TAP	19	96	2
TAP	19	96	3
TAP	19	192	0
TAP	19	288	1
TAP	19	288	3
STR	20	0	1
SCL	20	0	1	96	96	6
STR	20	192	5
SCL	20	192	5	96	96	2
TAP	21	0	1
TAP	21	96	0
TAP	21	192	7
TAP	21	288	6
XHO	22	0	3	96
XHO	22	0	5	96
XHO	22	192	2	96
XHO	22	192	4	96
TAP	23	0	7
TAP	23	48	7
TAP	23	96	0
BRK	23	192	1
BRK	23	192	6
STR	24	0	0
SI_	24	0	0	96	48	4
STR	24	0	1
SI_	24	0	1	96	48	4
STR	24	192	6
SI_	24	192	6	96	48	3
STR	24	192	7
SI_	24	192	7	96	48	3
TAP	25	0	2
TAP	25	48	2
TAP	25	96	1
TAP	25	96	3
TAP	25	192	4
TAP	25	192	6
TAP	25	288	3
TAP	25	288	5
STR	26	0	6
SI_	26	0	6	96	48	3
STR	26	0	7
SI_	26	0	7	96	48	3
STR	26	192	0
SI_	26	192	0	96	48	4
STR	26	192	1
SI_	26	192	1	96	48	4
TAP	27	0	5
TAP	27	48	5
TAP	27	96	4
TAP	27	96	6
TAP	27	192	1
TAP	27	192	3
TAP	27	288	0
TAP	27	288	7
HLD	28	0	5	96
HLD	28	96	4	96
HLD	28	192	3	96
TAP	28	288	2
XTP	29	0	0
XTP	29	0	1
XTP	29	96	2
XTP	29	96	7
XTP	29	192	3
XTP	29	192	6
XTP	29	288	4
XTP	29	288	5
XTP	30	0	3
XST	30	0	6
SI_	30	0	6	96	72	3
STR	30	192	0
SCR	30	192	0	96	192	7
TTP	30	288	0	C	1	M1
XTP	31	288	3
XTP	31	288	4
STR	32	0	6
SI_	32	0	6	96	48	3
STR	32	0	7
SI_	32	0	7	96	48	3
STR	32	192	0
SI_	32	192	0	96	48	4
STR	32	192	1
SI_	32	192	1	96	48	4
TAP	33	0	5
TAP	33	48	5
TAP	33	96	4
TAP	33	96	6
TAP	33	192	1
TAP	33	192	3
TAP	33	288	2
TAP	33	288	4
STR	34	0	0
SI_	34	0	0	96	48	4
STR	34	0	1
SI_	34	0	1	96	48	4
STR	34	192	6
SI_	34	192	6	96	48	3
STR	34	192	7
SI_	34	192	7	96	48	3
TAP	35	0	2
TAP	35	48	2
TAP	35	96	1
TAP	35	96	3
TAP	35	192	4
TAP	35	192	6
TAP	35	288	0
TAP	35	288	7
HLD	36	0	1	96
HLD	36	96	3	96
HLD	36	192	4	96
TAP	36	288	6
XTP	37	0	0
XTP	37	0	7
XTP	37	96	1
XTP	37	96	3
XTP	37	192	3
XTP	37	192	4
XTP	37	288	4
XTP	37	288	6
XST	38	0	0
SI_	38	0	0	96	72	3
XTP	38	0	7
STR	38	192	4
SCR	38	192	4	96	192	3
TTP	38	288	0	C	1	M1
BRK	39	288	2
BRK	39	288	6
TAP	40	0	4
TAP	40	96	3
TAP	40	96	5
TAP	40	192	6
TAP	40	288	5
TAP	40	288	7
TTP	41	0	0	E	0	M1
TTP	41	96	0	C	0	M1
TTP	41	192	4	E	0	M1
TAP	42	0	3
TAP	42	96	2
TAP	42	96	4
TAP	42	192	1
TAP	42	288	0
TAP	42	288	2
TTP	43	0	0	E	0	M1
TTP	43	96	0	C	0	M1
TTP	43	192	4	E	0	M1
TTP	44	0	7	E	0	M1
TTP	44	96	6	E	0	M1
TTP	44	192	5	E	0	M1
TTP	44	288	4	E	0	M1
TTP	45	0	3	E	0	M1
TTP	45	96	2	E	0	M1
TTP	45	192	1	E	0	M1
TTP	45	288	0	E	0	M1
XST	46	0	6
SUL	46	0	6	96	120	2
TAP	46	288	1
TAP	46	336	1
TAP	46	336	4
TAP	47	48	3
TAP	47	48	6
TAP	47	96	3
TAP	47	96	6
TTP	47	192	0	C	1	M1
TTP	47	192	2	B	0	M1
TTP	47	192	3	B	0	M1
TTP	47	192	4	B	0	M1
TTP	47	192	5	B	0	M1
XST	48	0	0
SCR	48	0	0	96	480	4
XHO	50	0	5	672
TAP	51	288	4
XST	52	0	5
SCL	52	0	5	96	144	2
XST	53	0	1
SUR	53	0	1	96	144	5
TAP	54	0	6
TAP	54	96	4
TAP	54	96	5
TAP	54	192	3
TAP	54	192	6
TAP	54	288	1
STR	54	288	4
SCR	54	288	4	96	192	3
TAP	54	336	1
TAP	54	336	4
XTP	55	288	3
XTP	55	288	4
BST	56	0	6
SI_	56	0	6	96	48	2
BST	56	0	7
SI_	56	0	7	96	48	3
STR	56	192	0
SI_	56	192	0	96	48	4
STR	56	192	1
SI_	56	192	1	96	48	5
TAP	57	0	6
TAP	57	48	6
TAP	57	96	3
TAP	57	96	5
TAP	57	192	1
TAP	57	192	4
TAP	57	288	2
TAP	57	288	3
STR	58	0	0
SI_	58	0	0	96	48	4
STR	58	0	1
SI_	58	0	1	96	48	5
STR	58	192	6
SI_	58	192	6	96	48	2
STR	58	192	7
SI_	58	192	7	96	48	3
TAP	59	0	1
TAP	59	48	1
TAP	59	96	2
TAP	59	96	4
XTP	59	192	0
XTP	59	192	7
TAP	59	288	2
TAP	59	288	5
HLD	60	0	0	96
HLD	60	96	2	96
HLD	60	192	4	96
TAP	60	288	6
XTP	61	0	0
XTP	61	0	7
XTP	61	96	1
XTP	61	96	2
XTP	61	192	3
XTP	61	192	4
XTP	61	288	5
XTP	61	288	6
XST	62	0	0
SI_	62	0	0	96	72	3
XTP	62	0	7
STR	62	192	4
SCR	62	192	4	96	192	3
TTP	62	288	0	C	1	M1
XTP	63	288	3
XTP	63	288	4
XST	64	0	3
SCL	64	0	3	96	72	0
XTP	64	0	4
STR	64	192	7
SCL	64	192	7	96	192	0
TTP	64	288	0	C	1	M1
BRK	65	288	2
BRK	65	288	5
TAP	66	0	1
TAP	66	48	1
HLD	66	96	3	96
TAP	66	192	2
TAP	66	288	1
TAP	66	288	4
TTP	67	0	5	B	0	M1
TTP	67	0	5	E	0	M1
TTP	67	96	7	B	0	M1
TTP	67	96	7	E	0	M1
TTP	67	192	1	B	0	M1
TTP	67	192	1	E	0	M1
TTP	67	288	3	B	0	M1
TTP	67	288	3	E	0	M1
TAP	68	0	6
TAP	68	48	6
HLD	68	96	4	96
TAP	68	192	5
TAP	68	288	3
TAP	68	288	6
TTP	69	0	2	B	0	M1
TTP	69	0	3	E	0	M1
TTP	69	96	0	B	0	M1
TTP	69	96	1	E	0	M1
TTP	69	192	6	B	0	M1
TTP	69	192	7	E	0	M1
TTP	69	288	4	B	0	M1
TTP	69	288	5	E	0	M1
STR	70	0	1
SSR	70	0	1	96	288	5
TAP	71	192	6
TAP	71	288	5
TAP	72	0	3
STR	72	0	4
SSL	72	0	4	96	288	0
XTP	73	192	1
XTP	73	192	6
XTP	73	288	3
XTP	73	288	4

T_REC_TAP	134
T_REC_BRK	6
T_REC_XTP	43
T_REC_HLD	22
T_REC_XHO	5
T_REC_STR	38
T_REC_BST	2
T_REC_XST	8
T_REC_TTP	49
T_REC_THO	0
T_REC_SLD	48
T_REC_ALL	355
T_NUM_TAP	272
T_NUM_BRK	8
T_NUM_HLD	27
T_NUM_SLD	48
T_NUM_ALL	355
T_JUDGE_TAP	280
T_JUDGE_HLD	96
T_JUDGE_SLD	48
T_JUDGE_ALL	424
TTM_EACHPAIRS	77
TTM_SCR_TAP	136000
TTM_SCR_BRK	20800
TTM_SCR_HLD	27000
TTM_SCR_SLD	72000
TTM_SCR_ALL	255800
TTM_SCR_S	247350
TTM_SCR_SS	255000
TTM_RAT_ACV	10031

