VERSION	0.00.00	1.03.00
FES_MODE	0
BPM_DEF	140.000	140.000	140.000	140.000
MET_DEF	4	4
RESOLUTION	384
CLK_DEF	384
COMPATIBLE_CODE	MA2

BPM	0	0	140.000
MET	0	0	4	4

XHO	2	0	2	192
TAP	2	192	3
HLD	3	0	5	192
TAP	3	192	4
HLD	4	0	2	192
HLD	4	192	3	192
HLD	5	0	4	192
XTP	5	192	5
HLD	6	0	6	192
TAP	6	192	7
HLD	7	0	1	192
TAP	7	192	0
HLD	8	0	6	192
HLD	8	192	7	192
HLD	9	0	0	192
TAP	9	192	1
BRK	10	0	2
TAP	10	96	2
TAP	10	192	3
TAP	10	288	3
TAP	11	0	4
TAP	11	96	4
TAP	11	192	3
TAP	11	192	5
TAP	12	0	6
TAP	12	96	6
TAP	12	192	7
TAP	12	288	7
TAP	13	0	0
TAP	13	96	0
XTP	13	192	1
XTP	13	192	7
HLD	14	0	2	96
TAP	14	96	3
TAP	14	192	3
HLD	15	0	5	96
TAP	15	96	4
TAP	15	192	4
HLD	16	0	2	96
TAP	16	96	3
TAP	16	192	3
HLD	17	0	4	96
HLD	17	0	5	96
TAP	17	192	4
TAP	17	192	5
HLD	18	0	6	96
TAP	18	96	7
TAP	18	192	7
HLD	19	0	1	96
TAP	19	96	0
TAP	19	192	0
HLD	20	0	6	96
TAP	20	96	7
TAP	20	192	7
TAP	21	0	0
TAP	21	0	1
TAP	21	96	0
TAP	21	96	1
TAP	21	192	0
TAP	21	192	1
XTP	22	0	0
XTP	22	0	7
XTP	22	192	1
XTP	22	192	6
XTP	23	0	2
XTP	23	0	5
XTP	23	96	2
XTP	23	96	5
XTP	23	192	2
XTP	23	192	5
BRK	24	0	1
TAP	24	96	0
TAP	24	96	1
TAP	24	192	1
TAP	24	288	0
TAP	24	288	1
TAP	25	0	2
TAP	25	96	3
TAP	25	192	2
TAP	25	192	4
TAP	26	0	5
TAP	26	96	4
TAP	26	96	5
TAP	26	192	5
TAP	26	288	4
TAP	26	288	5
TAP	27	0	6
TAP	27	96	0
TAP	27	96	7
XTP	27	192	1
XTP	27	192	6
HLD	28	0	2	192
TAP	28	96	3
TAP	28	192	3
HLD	29	0	5	192
TAP	29	96	4
TAP	29	192	4
TAP	30	0	3
TAP	30	96	3
TAP	30	192	4
TAP	30	288	4
TAP	31	0	3
TAP	31	0	4
TAP	31	96	3
TAP	31	96	4
XTP	31	192	2
XTP	31	192	5
BRK	32	0	5
TAP	32	96	4
TAP	32	96	5
TAP	32	192	5
TAP	32	288	4
TAP	32	288	5
TAP	33	0	6
TAP	33	96	7
TAP	33	192	0
TAP	33	192	6
TAP	34	0	1
TAP	34	96	0
TAP	34	96	1
TAP	34	192	1
TAP	34	288	0
TAP	34	288	1
TAP	35	0	2
TAP	35	96	3
TAP	35	96	4
XTP	35	192	2
XTP	35	192	5
HLD	36	0	6	192
TAP	36	96	7
TAP	36	192	7
HLD	37	0	1	192
TAP	37	96	0
TAP	37	192	0
TAP	38	0	7
TAP	38	96	7
TAP	38	192	0
TAP	38	288	0
TAP	39	0	0
TAP	39	0	7
TAP	39	96	0
TAP	39	96	7
BRK	39	192	1
BRK	39	192	6
STR	40	0	5
SI_	40	0	5	96	192	2
STR	41	0	1
SI_	41	0	1	96	192	4
STR	42	0	5
SI_	42	0	5	96	192	0
STR	43	0	1
SI_	43	0	1	96	192	5
STR	44	0	7
SCL	44	0	7	96	192	4
STR	45	0	3
SCL	45	0	3	96	192	0
STR	46	0	7
SCL	46	0	7	96	192	4
TAP	47	0	3
TAP	47	96	3
TAP	47	96	4
BRK	47	192	2
BRK	47	192	5
TTP	48	0	2	B	0	L1
TTP	48	0	3	B	0	L1
TTP	49	0	0	B	0	L1
TTP	49	0	1	B	0	L1
TTP	50	0	6	B	0	L1
TTP	50	0	7	B	0	L1
TTP	51	0	4	B	0	L1
TTP	51	0	5	B	0	L1
TTP	52	0	3	B	0	L1
TTP	52	192	2	B	0	L1
TTP	53	0	1	B	0	L1
TTP	53	192	0	B	0	L1
TTP	54	0	7	B	0	L1
TTP	54	192	6	B	0	L1
TTP	55	0	5	B	0	L1
TTP	55	192	0	C	1	L1
XTP	56	0	1
TAP	56	96	0
TAP	56	96	1
TAP	56	192	6
TAP	56	288	6
TAP	56	288	7
TAP	57	0	5
TAP	57	96	4
TAP	57	192	3
TAP	57	192	5
TAP	58	0	2
TAP	58	96	2
TAP	58	96	3
TAP	58	192	5
TAP	58	288	4
TAP	58	288	5
TAP	59	0	6
TAP	59	96	0
TAP	59	96	7
XTP	59	192	1
XTP	59	192	6
TAP	60	0	5
TAP	60	96	5
TAP	60	192	6
TAP	60	288	6
TAP	61	0	7
TAP	61	96	7
TAP	61	192	0
TAP	61	288	0
TAP	62	0	1
TAP	62	96	1
TAP	62	192	2
TAP	62	288	2
TAP	63	0	3
TAP	63	0	4
TAP	63	96	3
TAP	63	96	4
BRK	63	192	2
BRK	63	192	5
STR	64	0	3
SXR	64	0	3	96	480	0
STR	64	0	4
SXL	64	0	4	96	480	7
XTP	66	0	6
TAP	66	96	6
TAP	66	192	7
TAP	66	288	7
TAP	67	0	0
TAP	67	96	0
TAP	67	192	1
TAP	67	192	7
TAP	68	0	2
TAP	68	96	2
TAP	68	192	3
TAP	68	288	3
TAP	69	0	4
TAP	69	96	4
TAP	69	192	3
TAP	69	192	5
STR	70	0	6
SSL	70	0	6	96	432	2
STR	72	0	1
SSR	72	0	1	96	432	5

T_REC_TAP	150
T_REC_BRK	9
T_REC_XTP	23
T_REC_HLD	21
T_REC_XHO	1
T_REC_STR	11
T_REC_BST	0
T_REC_XST	0
T_REC_TTP	16
T_REC_THO	0
T_REC_SLD	11
T_REC_ALL	242
T_NUM_TAP	200
T_NUM_BRK	9
T_NUM_HLD	22
T_NUM_SLD	11
T_NUM_ALL	242
T_JUDGE_TAP	209
T_JUDGE_HLD	72
T_JUDGE_SLD	11
T_JUDGE_ALL	292
TTM_EACHPAIRS	47
TTM_SCR_TAP	100000
TTM_SCR_BRK	23400
TTM_SCR_HLD	22000
TTM_SCR_SLD	16500
TTM_SCR_ALL	161900
TTM_SCR_S	156200
TTM_SCR_SS	161000
TTM_RAT_ACV	10055

