VERSION	0.00.00	1.03.00
FES_MODE	0
BPM_DEF	140.000	140.000	140.000	140.000
MET_DEF	4	4
RESOLUTION	384
CLK_DEF	384
COMPATIBLE_CODE	MA2

BPM	0	0	140.000
MET	0	0	4	4

TAP	2	0	0
TAP	3	0	0
TAP	4	0	7
TAP	5	0	7
TAP	6	0	0
TAP	7	0	0
TAP	8	0	7
BRK	9	0	7
TAP	10	0	0
TAP	10	192	0
TAP	11	0	0
TAP	12	0	1
TAP	12	192	1
TAP	13	0	1
TAP	14	0	2
TAP	14	192	2
TAP	15	0	2
TAP	16	0	3
TAP	16	192	3
TAP	17	0	3
TAP	17	0	4
TAP	18	0	5
TAP	18	192	5
TAP	19	0	5
TAP	20	0	6
TAP	20	192	6
TAP	21	0	0
TAP	21	0	7
HLD	22	0	0	192
HLD	23	0	7	192
BRK	24	0	7
TAP	24	192	7
TAP	25	0	6
TAP	25	96	6
TAP	25	192	6
TAP	26	0	5
TAP	26	192	5
TAP	27	0	4
TAP	27	96	4
TAP	27	192	4
TAP	28	0	3
TAP	28	192	3
TAP	29	0	2
TAP	29	96	2
TAP	29	192	2
TAP	30	0	1
TAP	30	192	1
TAP	31	0	0
TAP	31	0	7
BRK	31	192	0
BRK	31	192	7
TAP	32	0	1
TAP	32	96	1
TAP	32	192	1
TAP	33	0	2
TAP	33	192	2
TAP	34	0	3
TAP	34	96	3
TAP	34	192	3
TAP	35	0	4
XTP	35	192	3
XTP	35	192	4
TAP	36	0	4
TAP	36	96	4
TAP	36	192	4
TAP	37	0	5
TAP	37	192	5
TAP	38	0	6
TAP	38	96	6
TAP	38	192	6
TAP	39	0	0
TAP	39	0	7
BRK	39	192	0
BRK	39	192	7
STR	40	0	7
SI_	40	0	7	96	288	4
STR	42	0	0
SI_	42	0	0	96	288	3
STR	44	0	7
SI_	44	0	7	96	288	3
STR	46	0	0
SI_	46	0	0	96	288	4
TTP	48	0	5	B	0	L1
TTP	49	0	6	B	0	L1
TTP	50	0	7	B	0	L1
TTP	51	0	0	B	0	L1
TTP	52	0	1	B	0	L1
TTP	53	0	2	B	0	L1
TTP	54	0	3	B	0	L1
TTP	54	0	4	B	0	L1
TTP	55	0	0	C	1	L1
XTP	56	0	7
TAP	56	96	7
TAP	56	192	7
TAP	57	0	6
TAP	57	96	6
TAP	57	192	6
TAP	58	0	5
TAP	58	96	5
TAP	58	192	5
TAP	59	0	4
TAP	59	96	3
BRK	59	192	4
TAP	60	0	3
TAP	60	96	3
TAP	60	192	3
TAP	61	0	2
TAP	61	96	2
TAP	61	192	2
TAP	62	0	1
TAP	62	96	1
TAP	62	192	1
TAP	63	0	0
TAP	63	96	7
BRK	63	192	0
HLD	64	0	0	192
HLD	64	0	7	192
TAP	65	0	0
TAP	65	0	7
TAP	65	96	0
TAP	65	96	7
BRK	65	192	0
BRK	65	192	7
HLD	66	0	1	192
HLD	67	0	2	192
HLD	68	0	3	192
HLD	69	0	3	192
HLD	69	0	4	192
TAP	70	0	4
TAP	70	192	4
TAP	71	0	5
TAP	71	192	5
TAP	72	0	6
TAP	72	192	6
TAP	73	0	7
TAP	73	192	0
TAP	73	192	7
TAP	73	288	0
TAP	73	288	7

T_REC_TAP	100
T_REC_BRK	10
T_REC_XTP	3
T_REC_HLD	9
T_REC_XHO	0
T_REC_STR	4
T_REC_BST	0
T_REC_XST	0
T_REC_TTP	9
T_REC_THO	0
T_REC_SLD	4
T_REC_ALL	139
T_NUM_TAP	116
T_NUM_BRK	10
T_NUM_HLD	9
T_NUM_SLD	4
T_NUM_ALL	139
T_JUDGE_TAP	126
T_JUDGE_HLD	36
T_JUDGE_SLD	4
T_JUDGE_ALL	166
TTM_EACHPAIRS	14
TTM_SCR_TAP	58000
TTM_SCR_BRK	26000
TTM_SCR_HLD	9000
TTM_SCR_SLD	6000
TTM_SCR_ALL	99000
TTM_SCR_S	95100
TTM_SCR_SS	98000
TTM_RAT_ACV	10102

