VERSION	0.00.00	1.03.00
FES_MODE	0
BPM_DEF	174.000	123.000	174.000	100.000
MET_DEF	4	4
RESOLUTION	384
CLK_DEF	384
COMPATIBLE_CODE	MA2

BPM	0	0	174.000
BPM	2	0	160.000
BPM	8	96	113.000
BPM	8	192	100.000
BPM	9	288	110.000
BPM	10	192	123.000
BPM	17	0	174.000
BPM	18	192	160.000
BPM	24	288	113.000
BPM	25	0	100.000
BPM	26	96	110.000
BPM	27	0	123.000
MET	0	0	4	4
MET	2	96	4	5
MET	3	192	4	4
MET	9	192	4	6
MET	11	0	4	4
MET	18	288	4	5
MET	20	0	4	4
MET	26	0	4	6
MET	27	192	4	4

TTP	1	264	0	C	0	M1
XTP	2	96	2
XTP	2	120	2
XTP	2	144	3
STR	2	192	1
SI_	2	192	1	96	48	4
TAP	2	192	4
TAP	2	240	1
TAP	2	240	4
STR	2	288	5
SCR	2	288	5	96	96	2
TAP	2	336	5
TTP	3	0	0	C	1	M1
XTP	3	96	7
STR	3	192	4
SCL	3	192	4	96	48	1
STR	3	192	5
SCR	3	192	5	96	48	0
STR	4	0	2
SCL	4	0	2	96	48	7
STR	4	0	3
SCR	4	0	3	96	48	6
TAP	4	192	2
TAP	4	192	5
TAP	4	240	2
TAP	4	240	5
STR	4	288	3
SI_	4	288	3	96	48	0
STR	4	288	4
SI_	4	288	4	96	48	7
XTP	5	0	3
XTP	5	0	4
XTP	5	96	0
XTP	5	96	7
XTP	5	192	2
XTP	5	240	6
XTP	5	288	3
XTP	5	288	5
XTP	5	336	3
XTP	5	336	5
XTP	6	0	3
XTP	6	0	5
BRK	6	96	0
BRK	6	96	7
STR	6	192	2
SCL	6	192	2	96	48	7
STR	6	192	3
SCR	6	192	3	96	48	6
STR	7	0	4
SCL	7	0	4	96	48	1
STR	7	0	5
SCR	7	0	5	96	48	0
TAP	7	192	2
TAP	7	192	6
TAP	7	240	1
TAP	7	240	5
STR	7	288	2
SCL	7	288	2	96	48	0
STR	7	288	6
SCL	7	288	6	96	48	3
BRK	8	96	1
BRK	8	96	5
THO	8	288	0	192	C	0	M1
TTP	9	96	0	B	0	M1
TTP	9	96	7	B	0	M1
TTP	9	288	5	E	0	M1
TTP	9	304	4	B	0	M1
TTP	9	320	3	B	0	M1
TTP	9	336	3	E	0	M1
TTP	10	192	3	B	0	M1
TTP	10	192	3	E	0	M1
TTP	10	192	4	B	0	M1
TTP	10	192	5	E	0	M1
BRK	11	48	2
BRK	11	144	6
BRK	11	192	3
BRK	11	192	5
BRK	11	240	3
BRK	11	240	5
BRK	11	288	3
BRK	11	288	5
BRK	11	336	0
BRK	11	336	7
TTP	12	0	6	E	0	M1
TTP	12	48	4	B	0	M1
TTP	12	96	3	B	0	M1
TTP	12	144	2	E	0	M1
TTP	12	192	4	E	0	M1
TTP	12	216	0	C	0	M1
TTP	12	240	0	E	0	M1
THO	13	0	0	192	C	0	M1
STR	13	96	6
SUL	13	96	6	96	96	1
BRK	14	48	2
BRK	14	144	6
BRK	14	192	3
BRK	14	192	5
BRK	14	240	3
BRK	14	240	5
BRK	14	288	3
BRK	14	288	5
BRK	14	336	0
BRK	14	336	7
TTP	15	0	2	E	0	M1
TTP	15	48	3	B	0	M1
TTP	15	96	4	B	0	M1
TTP	15	144	6	E	0	M1
TTP	15	192	4	E	0	M1
TTP	15	216	0	C	0	M1
TTP	15	240	0	E	0	M1
XTP	16	48	0
XTP	16	72	0
XTP	16	96	0
XTP	16	104	1
XTP	16	112	2
XTP	16	120	3
XTP	16	128	4
XTP	16	136	5
XTP	16	144	6
XTP	16	152	7
XTP	16	160	0
XTP	16	168	1
XTP	16	176	2
XTP	16	184	3
XTP	16	192	4
XTP	16	200	5
XTP	16	208	6
XTP	16	216	7
XTP	16	224	0
XTP	16	232	1
XTP	16	240	2
XTP	16	248	3
XTP	16	256	4
XTP	16	264	5
XTP	16	272	6
XTP	16	280	7
XTP	16	288	0
TTP	16	288	0	C	1	M1
THO	17	192	0	264	C	0	M1
TTP	18	72	1	B	0	M1
TTP	18	72	2	B	0	M1
TTP	18	72	5	B	0	M1
TTP	18	72	6	B	0	M1
XTP	18	168	0
XTP	18	168	7
TTP	18	288	6	E	0	M1
TTP	18	312	5	E	0	M1
TTP	18	336	4	E	0	M1
TTP	18	360	3	E	0	M1
TTP	19	0	2	E	0	M1
STR	19	96	0
SCR	19	96	0	96	48	3
STR	19	96	7
SCL	19	96	7	96	48	4
XTP	19	144	1
XTP	19	144	6
XTP	19	192	0
XTP	19	192	7
XTP	19	288	1
XTP	19	288	6
TAP	20	0	0
STR	20	0	4
SI_	20	0	4	96	48	7
TAP	20	48	0
TAP	20	96	2
TAP	20	144	2
STR	20	192	3
SI_	20	192	3	96	48	0
TAP	20	192	7
TAP	20	240	7
TAP	20	288	5
TAP	20	336	5
TAP	21	0	1
TAP	21	0	4
TAP	21	48	2
STR	21	96	3
SI_	21	96	3	96	48	0
STR	21	96	4
SI_	21	96	4	96	48	7
XTP	21	192	3
XTP	21	192	4
XTP	21	288	0
HLD	22	0	2	192
TAP	22	0	6
TAP	22	48	5
TAP	22	96	4
TAP	22	144	4
BRK	22	192	7
BRK	22	288	7
STR	23	0	3
SCL	23	0	3	96	48	0
STR	23	0	6
SCL	23	0	6	96	48	4
XTP	23	96	3
XTP	23	96	6
STR	23	192	2
SCL	23	192	2	96	48	0
STR	23	192	7
SCL	23	192	7	96	48	4
XTP	23	288	2
XTP	23	288	7
TAP	24	0	2
TAP	24	0	5
TAP	24	48	2
TAP	24	48	5
STR	24	96	3
SI_	24	96	3	96	48	0
STR	24	96	4
SI_	24	96	4	96	48	6
XTP	24	192	3
XTP	24	192	4
TTP	24	288	0	C	0	M1
TTP	24	288	1	B	0	M1
TTP	24	288	1	E	0	M1
TTP	24	288	2	B	0	M1
TTP	24	288	4	B	0	M1
TTP	24	288	5	E	0	M1
TTP	24	288	6	B	0	M1
TAP	25	96	6
TAP	25	120	6
STR	25	144	6
SCL	25	144	6	96	144	1
HLD	25	168	6	312
XTP	26	192	2
XTP	26	204	4
XTP	26	216	2
XTP	26	228	4
XTP	26	240	2
XTP	26	252	4
XTP	26	264	2
XTP	26	276	4
XTP	26	288	3
XTP	26	300	5
XTP	26	312	3
XTP	26	324	5
XTP	26	336	3
BRK	27	0	7
TAP	27	192	0
TAP	27	192	4
TAP	27	240	0
TAP	27	240	4
TAP	27	288	0
STR	27	288	4
SCL	27	288	4	96	48	0
SCR	27	288	4	96	48	0
STR	27	336	0
SCL	27	336	0	96	96	0
SCR	27	336	0	96	96	0
TAP	27	336	4
XTP	28	192	0
STR	28	240	1
SXL	28	240	1	96	48	3
STR	28	240	6
SXR	28	240	6	96	48	4
STR	28	288	3
SCL	28	288	3	96	96	4
STR	28	288	4
SCR	28	288	4	96	96	3
BRK	29	192	2
BRK	29	264	6
BRK	29	288	3
BRK	29	288	5
BRK	29	336	3
BRK	29	336	5
BRK	30	0	3
BRK	30	0	5
BRK	30	96	0
BRK	30	96	7
TAP	30	192	3
TAP	30	192	7
TAP	30	240	3
TAP	30	240	7
STR	30	288	3
SCL	30	288	3	96	48	7
SCR	30	288	3	96	48	7
TAP	30	288	7
TAP	30	336	3
STR	30	336	7
SCL	30	336	7	96	96	7
SCR	30	336	7	96	96	7
XTP	31	192	7
STR	31	240	1
SXL	31	240	1	96	48	3
STR	31	240	6
SXR	31	240	6	96	48	4
STR	31	288	3
SCL	31	288	3	96	96	4
STR	31	288	4
SCR	31	288	4	96	96	3
XTP	32	240	0
XTP	32	264	0
XTP	32	288	0
XTP	32	300	7
XTP	32	312	0
XTP	32	324	7
XTP	32	336	0
XTP	32	348	7
XTP	32	360	0
XTP	32	372	7
XST	33	0	0
SUR	33	0	0	96	24	4
XTP	33	12	7
XTP	33	24	0
XTP	33	36	7
XTP	33	48	0
XTP	33	60	7
XTP	33	72	0
XTP	33	84	7
XTP	33	96	0
TTP	33	108	0	C	1	M1

T_REC_TAP	45
T_REC_BRK	37
T_REC_XTP	93
T_REC_HLD	2
T_REC_XHO	0
T_REC_STR	40
T_REC_BST	0
T_REC_XST	1
T_REC_TTP	44
T_REC_THO	3
T_REC_SLD	45
T_REC_ALL	310
T_NUM_TAP	223
T_NUM_BRK	37
T_NUM_HLD	5
T_NUM_SLD	45
T_NUM_ALL	310
T_JUDGE_TAP	260
T_JUDGE_HLD	35
T_JUDGE_SLD	45
T_JUDGE_ALL	340
TTM_EACHPAIRS	62
TTM_SCR_TAP	111500
TTM_SCR_BRK	96200
TTM_SCR_HLD	5000
TTM_SCR_SLD	67500
TTM_SCR_ALL	280200
TTM_SCR_S	268250
TTM_SCR_SS	276500
TTM_RAT_ACV	10133

