VERSION	0.00.00	1.03.00
FES_MODE	0
BPM_DEF	174.000	123.000	174.000	100.000
MET_DEF	4	4
RESOLUTION	384
CLK_DEF	384
COMPATIBLE_CODE	MA2

BPM	0	0	174.000
BPM	2	0	160.000
BPM	8	96	113.000
BPM	8	192	100.000
BPM	9	288	110.000
BPM	10	192	123.000
BPM	17	0	174.000
BPM	18	192	160.000
BPM	24	288	113.000
BPM	25	0	100.000
BPM	26	96	110.000
BPM	27	0	123.000
MET	0	0	4	4
MET	2	96	4	5
MET	3	192	4	4
MET	9	192	4	6
MET	11	0	4	4
MET	18	288	4	5
MET	20	0	4	4
MET	26	0	4	6
MET	27	192	4	4

XTP	2	96	1
XTP	2	96	6
TAP	2	192	0
TAP	2	240	0
TAP	2	288	7
TAP	3	0	1
TAP	3	0	6
TAP	3	96	1
TAP	3	96	6
STR	3	192	4
SI_	3	192	4	96	96	7
STR	4	0	3
SI_	4	0	3	96	96	0
TAP	4	192	7
TAP	4	288	2
TAP	4	288	5
TAP	5	0	1
TAP	5	0	6
BRK	5	96	7
TAP	5	192	3
TAP	5	240	3
STR	5	288	4
SCR	5	288	4	96	96	7
TAP	6	192	3
TAP	6	192	7
TAP	6	288	1
TAP	6	288	5
TAP	7	0	3
TAP	7	0	7
TAP	7	96	1
TAP	7	96	5
TAP	7	192	0
TAP	7	192	7
TAP	7	288	3
TAP	7	288	4
TAP	8	0	1
TAP	8	0	6
TTP	8	96	0	C	0	M1
TTP	8	96	3	B	0	M1
TTP	8	96	4	B	0	M1
HLD	8	288	2	192
TTP	9	96	4	B	0	M1
TTP	9	96	5	B	0	M1
TTP	9	96	5	E	0	M1
STR	9	288	2
SCR	9	288	2	96	96	5
XTP	10	192	7
TAP	11	0	3
TAP	11	0	4
STR	11	96	0
SCR	11	96	0	96	96	3
STR	11	96	7
SCL	11	96	7	96	96	4
TAP	12	0	2
TAP	12	0	5
STR	12	96	3
SCL	12	96	3	96	96	0
STR	12	96	4
SCR	12	96	4	96	96	7
HLD	13	0	0	288
STR	13	96	5
SCL	13	96	5	96	96	2
TAP	14	0	2
TAP	14	0	5
STR	14	96	3
SCL	14	96	3	96	96	0
STR	14	96	4
SCR	14	96	4	96	96	7
TAP	15	0	2
TAP	15	0	5
TAP	15	96	0
TAP	15	96	7
HLD	15	192	1	96
HLD	15	192	6	96
XST	16	48	7
SCL	16	48	7	96	192	0
XTP	18	72	0
TAP	18	288	2
TAP	18	288	5
TAP	19	0	3
TAP	19	48	3
TAP	19	96	4
BRK	19	192	1
BRK	19	192	6
BRK	19	288	1
BRK	19	288	6
TAP	20	0	3
TAP	20	0	7
TAP	20	96	1
TAP	20	96	5
TAP	20	192	3
TAP	20	192	7
TAP	20	288	1
TAP	20	288	5
HLD	21	0	2	96
TAP	21	0	3
HLD	21	96	6	96
TAP	21	192	7
BRK	21	288	0
TAP	22	0	7
TAP	22	48	7
TAP	22	96	0
TAP	22	144	0
TAP	22	192	1
TAP	22	192	6
TAP	22	288	2
TAP	22	288	5
TAP	23	0	3
HLD	23	0	6	96
TAP	23	96	4
HLD	23	192	1	96
TAP	23	192	4
TAP	23	288	3
TAP	24	0	2
TAP	24	0	5
TAP	24	96	3
TAP	24	96	4
BRK	24	192	0
BRK	24	192	7
TTP	24	288	0	C	1	M1
TTP	24	288	1	B	0	M1
TTP	24	288	5	B	0	M1
HLD	25	96	2	192
TTP	25	288	5	B	0	M1
TTP	25	288	6	B	0	M1
TTP	25	288	6	E	0	M1
TTP	26	96	3	E	0	M1
TTP	26	120	4	E	0	M1
TTP	26	144	5	E	0	M1
TTP	27	0	3	B	0	M1
TTP	27	0	3	E	0	M1
TTP	27	0	4	B	0	M1
TTP	27	0	5	E	0	M1
TAP	27	192	1
TAP	27	192	6
TAP	27	240	1
TAP	27	240	6
STR	27	288	0
SCR	27	288	0	96	96	3
STR	27	288	7
SCL	27	288	7	96	96	4
TAP	28	192	2
TAP	28	192	5
TAP	28	240	2
TAP	28	240	5
STR	28	288	3
SCL	28	288	3	96	96	0
STR	28	288	4
SCR	28	288	4	96	96	7
TAP	29	192	3
HLD	29	288	0	192
STR	29	288	5
SCL	29	288	5	96	96	2
TAP	30	192	1
TAP	30	192	6
TAP	30	240	2
TAP	30	240	5
STR	30	288	3
SCL	30	288	3	96	96	0
STR	30	288	4
SCR	30	288	4	96	96	7
TAP	31	192	2
TAP	31	192	5
TAP	31	240	2
TAP	31	240	5
HLD	31	288	3	96
TAP	31	288	4
THO	32	0	0	240	C	0	M1
XST	32	240	0
SCR	32	240	0	96	192	7

T_REC_TAP	87
T_REC_BRK	8
T_REC_XTP	4
T_REC_HLD	11
T_REC_XHO	0
T_REC_STR	18
T_REC_BST	0
T_REC_XST	2
T_REC_TTP	19
T_REC_THO	1
T_REC_SLD	20
T_REC_ALL	170
T_NUM_TAP	130
T_NUM_BRK	8
T_NUM_HLD	12
T_NUM_SLD	20
T_NUM_ALL	170
T_JUDGE_TAP	138
T_JUDGE_HLD	45
T_JUDGE_SLD	20
T_JUDGE_ALL	203
TTM_EACHPAIRS	49
TTM_SCR_TAP	65000
TTM_SCR_BRK	20800
TTM_SCR_HLD	12000
TTM_SCR_SLD	30000
TTM_SCR_ALL	127800
TTM_SCR_S	123200
TTM_SCR_SS	127000
TTM_RAT_ACV	10062

