VERSION	0.00.00	1.03.00
FES_MODE	0
BPM_DEF	174.000	123.000	174.000	100.000
MET_DEF	4	4
RESOLUTION	384
CLK_DEF	384
COMPATIBLE_CODE	MA2

BPM	0	0	174.000
BPM	2	0	160.000
BPM	8	96	113.000
BPM	8	192	100.000
BPM	9	288	110.000
BPM	10	192	123.000
BPM	17	0	174.000
BPM	18	192	160.000
BPM	24	288	113.000
BPM	25	0	100.000
BPM	26	96	110.000
BPM	27	0	123.000
MET	0	0	4	4
MET	2	96	4	5
MET	3	192	4	4
MET	9	192	4	6
MET	11	0	4	4
MET	18	288	4	5
MET	20	0	4	4
MET	26	0	4	6
MET	27	192	4	4

TAP	2	192	2
TAP	2	192	5
TAP	2	288	2
TAP	2	288	5
BRK	3	0	2
BRK	3	0	5
TAP	3	192	6
TAP	3	288	6
TAP	4	0	6
TAP	4	0	7
TAP	4	192	1
TAP	4	288	1
HLD	5	0	0	96
HLD	5	0	1	96
TAP	5	192	0
TAP	5	192	7
TAP	5	288	0
TAP	5	288	7
BRK	6	0	1
BRK	6	0	6
TAP	6	192	5
TAP	6	288	5
TAP	7	0	4
TAP	7	0	5
TAP	7	192	2
TAP	7	288	2
HLD	8	0	2	96
HLD	8	0	3	96
THO	8	288	0	192	C	1	L1
STR	9	288	1
SCR	9	288	1	96	192	5
TAP	11	0	6
TAP	11	96	6
TAP	11	192	7
TAP	11	288	7
TAP	12	0	0
TAP	12	96	0
BRK	12	192	1
BRK	12	192	7
XST	13	0	6
SCL	13	0	6	96	192	2
TAP	14	0	1
TAP	14	96	1
TAP	14	192	0
TAP	14	288	0
TAP	15	0	7
TAP	15	96	7
BRK	15	192	1
BRK	15	192	6
XST	16	0	0
SXL	16	0	0	96	480	3
XST	16	0	7
SXR	16	0	7	96	480	4
TAP	19	0	3
TAP	19	0	4
TAP	19	96	3
TAP	19	96	4
BRK	19	192	2
BRK	19	192	5
TAP	20	0	6
TAP	20	96	6
TAP	20	96	7
TAP	20	192	1
TAP	20	288	0
TAP	20	288	1
TAP	21	0	2
TAP	21	96	3
HLD	21	192	2	96
HLD	21	192	4	96
BST	22	0	5
SV_	22	0	5	96	192	2
TAP	23	0	1
TAP	23	96	0
TAP	23	96	1
TAP	23	192	6
TAP	23	288	6
TAP	23	288	7
TAP	24	0	5
TAP	24	96	4
BST	24	192	2
SLL	24	192	2	96	336	4
BST	24	192	5
SLR	24	192	5	96	336	3
XST	26	96	1
SCR	26	96	1	96	192	5
TAP	27	192	6
TAP	27	288	6
TAP	28	0	0
TAP	28	48	0
TAP	28	96	0
TAP	28	192	7
TAP	28	288	0
TAP	28	288	7
BRK	29	0	1
BRK	29	0	6
XST	29	192	6
SLL	29	192	6	96	192	2
TAP	30	192	1
TAP	30	288	1
TAP	31	0	7
TAP	31	48	7
TAP	31	96	7
TAP	31	192	0
TAP	31	288	0
TAP	31	288	7
BRK	32	0	1
BRK	32	0	6
THO	32	192	0	288	C	1	L1

T_REC_TAP	68
T_REC_BRK	14
T_REC_XTP	0
T_REC_HLD	6
T_REC_XHO	0
T_REC_STR	1
T_REC_BST	3
T_REC_XST	5
T_REC_TTP	0
T_REC_THO	2
T_REC_SLD	9
T_REC_ALL	108
T_NUM_TAP	74
T_NUM_BRK	17
T_NUM_HLD	8
T_NUM_SLD	9
T_NUM_ALL	108
T_JUDGE_TAP	91
T_JUDGE_HLD	26
T_JUDGE_SLD	9
T_JUDGE_ALL	126
TTM_EACHPAIRS	26
TTM_SCR_TAP	37000
TTM_SCR_BRK	44200
TTM_SCR_HLD	8000
TTM_SCR_SLD	13500
TTM_SCR_ALL	102700
TTM_SCR_S	98000
TTM_SCR_SS	101000
TTM_RAT_ACV	10168

