VERSION	0.00.00	1.03.00
FES_MODE	0
BPM_DEF	147.000	147.000	147.000	147.000
MET_DEF	4	4
RESOLUTION	384
CLK_DEF	384
COMPATIBLE_CODE	MA2

BPM	0	0	147.000
MET	0	0	4	4

BST	1	0	0
SSL	1	0	0	96	192	4
TAP	2	0	3
TAP	2	24	5
TAP	2	48	2
TAP	2	72	4
TAP	2	96	3
TAP	2	120	5
TAP	2	168	4
TAP	2	168	6
TAP	2	216	5
TAP	2	240	4
TAP	2	288	6
TAP	2	336	6
TAP	3	0	3
TAP	3	0	5
TAP	3	48	4
TAP	3	96	2
TAP	3	120	3
XTP	3	168	1
XTP	3	168	4
XTP	3	240	0
XTP	3	240	5
TAP	4	0	4
TAP	4	24	2
TAP	4	48	5
TAP	4	72	3
TAP	4	96	4
TAP	4	120	2
TAP	4	168	1
TAP	4	168	3
TAP	4	216	2
TAP	4	240	3
TAP	4	288	2
TAP	4	288	4
TAP	4	336	5
THO	5	0	0	96	C	1	M1
TTP	5	96	2	E	0	M1
TTP	5	96	6	E	0	M1
XTP	5	288	0
XTP	5	288	7
HLD	6	0	1	48
HLD	6	0	3	48
HLD	6	96	4	48
HLD	6	96	5	48
BRK	6	192	2
BRK	6	192	3
BRK	6	240	0
BRK	6	240	5
TAP	7	0	1
TAP	7	24	5
TAP	7	48	2
TAP	7	72	4
TAP	7	96	3
TAP	7	120	5
TAP	7	144	4
TAP	7	168	6
TAP	7	192	3
TAP	7	240	3
STR	7	288	4
SCL	7	288	4	96	192	6
TAP	7	336	3
XTP	8	0	2
TAP	8	288	4
TAP	8	288	5
THO	9	0	0	96	C	1	M1
TTP	9	96	0	E	0	M1
XTP	9	240	0
XTP	9	240	7
HLD	10	0	4	48
HLD	10	0	6	48
HLD	10	96	2	48
HLD	10	96	3	48
BRK	10	192	4
BRK	10	192	5
BRK	10	240	2
BRK	10	240	7
TAP	11	0	6
TAP	11	24	2
TAP	11	48	5
TAP	11	72	3
TAP	11	96	4
TAP	11	120	2
TAP	11	144	3
TAP	11	168	1
TAP	11	192	4
TAP	11	240	4
STR	11	288	3
SCR	11	288	3	96	192	1
TAP	11	336	4
XTP	12	0	5
TAP	12	288	2
TAP	12	288	3
THO	13	0	0	96	C	1	M1
TTP	13	96	0	E	0	M1
TAP	13	240	0
TAP	13	288	7
TAP	13	336	6
HLD	14	0	5	96
HLD	14	96	4	72
TAP	14	168	5
TAP	14	192	4
TAP	14	240	6
TAP	14	288	4
TAP	14	336	5
BRK	15	0	0
BRK	15	48	0
TAP	15	96	7
TAP	15	192	6
TAP	15	240	5
TAP	15	288	4
TAP	15	336	3
HLD	16	0	2	96
HLD	16	96	3	72
TAP	16	168	2
TAP	16	192	3
TAP	16	240	1
TAP	16	288	3
TAP	16	336	2
BRK	17	0	7
BRK	17	48	7
TAP	17	96	0
TAP	17	192	1
TAP	17	240	2
TAP	17	288	3
TAP	17	288	4
TAP	18	0	6
TAP	18	48	6
TAP	18	96	4
TAP	18	144	5
TAP	18	192	2
TAP	18	240	2
TAP	18	288	3
HLD	18	336	1	96
TAP	19	48	0
TAP	19	96	7
TAP	19	144	2
TAP	19	192	3
TAP	19	240	6
STR	19	288	4
SXR	19	288	4	96	192	1
STR	19	288	5
SXL	19	288	5	96	192	0
TAP	19	336	4
TAP	19	336	5
XTP	20	288	2
XTP	20	288	7
XTP	20	336	2
XTP	20	336	7
XTP	21	48	0
XTP	21	48	5
XTP	21	96	0
XTP	21	96	5
TAP	21	192	1
TAP	21	240	3
STR	21	288	2
SUR	21	288	2	96	192	4
TAP	22	0	7
TAP	22	96	7
TAP	22	192	7
TAP	22	288	4
TAP	22	288	7
TAP	22	336	4
TAP	23	0	4
HLD	23	0	5	96
TAP	23	96	4
TAP	23	192	6
TAP	23	240	7
TAP	23	288	0
STR	23	288	5
SUL	23	288	5	96	192	3
TAP	24	0	0
TAP	24	96	0
TAP	24	192	0
TAP	24	288	0
TAP	24	288	3
TAP	24	336	3
BST	25	0	2
SI_	25	0	2	96	48	7
TAP	25	0	3
BST	25	96	5
SI_	25	96	5	96	48	0
BST	25	192	1
SI_	25	192	1	96	48	4
BST	25	288	6
SUR	25	288	6	96	192	0
XTP	26	0	3
TAP	26	96	3
TAP	26	192	3
TAP	26	288	0
TAP	26	288	3
TAP	26	336	0
TAP	27	0	0
HLD	27	0	2	96
TAP	27	96	3
TAP	27	192	2
TAP	27	240	3
STR	27	288	1
SUL	27	288	1	96	192	7
TAP	27	288	4
TAP	28	0	4
TAP	28	96	4
TAP	28	192	4
STR	28	288	4
SCR	28	288	4	96	192	2
TAP	28	288	7
TAP	28	336	7
BRK	29	0	0
TAP	29	240	3
TAP	29	288	3
TAP	29	288	4
TAP	30	0	6
TAP	30	24	4
TAP	30	48	5
TAP	30	72	4
TAP	30	96	5
TAP	30	144	4
TAP	30	144	6
XTP	30	192	3
STR	30	192	7
SCL	30	192	7	96	48	4
XTP	30	240	3
TAP	31	0	1
TAP	31	24	3
TAP	31	48	2
TAP	31	72	3
TAP	31	96	2
TAP	31	144	1
TAP	31	144	4
TAP	31	192	5
TAP	31	240	6
STR	31	288	0
SCR	31	288	0	96	240	7
STR	31	288	7
SCL	31	288	7	96	240	0
TAP	33	0	2
TAP	33	24	3
TAP	33	72	5
STR	33	96	4
SI_	33	96	4	96	48	0
SI_	33	96	4	96	48	1
TAP	33	144	3
TAP	33	144	6
BRK	33	192	4
TTP	33	196	0	C	1	M1
STR	34	0	6
SI_	34	0	6	96	48	3
TAP	34	48	7
STR	34	96	1
SI_	34	96	1	96	48	4
TAP	34	144	0
STR	34	192	6
SI_	34	192	6	96	48	3
TAP	34	240	7
TAP	34	288	0
TAP	34	336	0
TAP	35	0	1
TAP	35	0	4
TAP	35	48	5
TAP	35	72	4
TAP	35	96	6
TAP	35	144	2
BRK	35	192	0
BRK	35	192	4
TAP	35	288	1
STR	35	288	3
SI_	35	288	3	96	48	7
TAP	35	336	4
TAP	36	0	3
TAP	36	0	5
STR	36	96	4
SI_	36	96	4	96	48	0
TAP	36	96	6
TAP	36	144	3
TAP	36	192	2
TAP	36	192	4
TAP	36	288	1
TAP	36	288	7
TAP	36	336	2
TAP	36	336	6
TTP	37	0	0	C	1	M1
TTP	37	0	5	B	0	M1
TTP	37	0	5	E	0	M1
TTP	37	0	6	B	0	M1
TTP	37	0	7	E	0	M1
TTP	37	96	0	C	1	M1
TTP	37	96	1	B	0	M1
TTP	37	96	1	E	0	M1
TTP	37	96	2	B	0	M1
TTP	37	96	3	E	0	M1
TTP	37	192	0	B	0	M1
TTP	37	192	0	C	1	M1
TTP	37	192	3	B	0	M1
TTP	37	192	4	B	0	M1
TTP	37	192	4	E	0	M1
TTP	37	192	7	B	0	M1
TAP	38	0	0
XTP	38	0	7
XTP	38	48	1
TAP	38	48	6
STR	38	96	2
SI_	38	96	2	96	48	0
STR	38	96	5
SI_	38	96	5	96	48	7
TAP	38	144	3
TAP	38	144	4
TAP	38	192	2
TAP	38	192	5
XTP	38	288	1
XTP	38	288	6
BRK	39	0	0
BRK	39	0	7
BRK	39	48	1
BRK	39	48	6
STR	39	96	2
SI_	39	96	2	96	48	5
TAP	39	96	5
TAP	39	144	3
TAP	39	144	4
TAP	39	192	2
TAP	39	192	5
STR	39	288	7
SCR	39	288	7	96	96	3
STR	40	0	3
SCR	40	0	3	96	96	7
TAP	40	96	7
TAP	40	192	3
TAP	40	288	1
TAP	40	288	4
BST	41	0	3
SCL	41	0	3	96	48	0
SCR	41	0	3	96	48	6
BRK	41	24	4
BRK	41	48	3
BRK	41	72	4
BST	41	96	3
SF_	41	96	3	96	48	7
BRK	41	192	3
TTP	41	196	0	C	1	M1
STR	42	0	1
SI_	42	0	1	96	48	4
TAP	42	48	0
STR	42	96	6
SI_	42	96	6	96	48	3
TAP	42	144	7
STR	42	192	1
SI_	42	192	1	96	48	4
TAP	42	240	0
TAP	42	288	7
TAP	42	336	7
TAP	43	0	3
TAP	43	0	6
TAP	43	48	2
TAP	43	72	3
TAP	43	96	1
TAP	43	144	0
TAP	43	144	4
BRK	43	192	2
BRK	43	192	6
XST	43	288	4
SI_	43	288	4	96	48	1
XST	43	288	5
SI_	43	288	5	96	48	0
TAP	44	0	4
TAP	44	0	5
XST	44	96	0
SUR	44	96	0	96	48	5
XST	44	96	1
SCR	44	96	1	96	48	4
TAP	44	192	0
TAP	44	192	1
TAP	44	288	7
TAP	44	336	7
XTP	45	0	7
TAP	45	12	6
TAP	45	24	5
TAP	45	36	4
TAP	45	48	3
TAP	45	60	2
TAP	45	72	1
TAP	45	84	0
XTP	45	96	7
TAP	45	108	6
TAP	45	120	5
TAP	45	132	4
TAP	45	144	3
TAP	45	156	2
TAP	45	168	1
TAP	45	180	0
TTP	45	192	0	C	1	M1
XTP	45	192	7
TAP	46	0	0
TAP	46	0	7
TAP	46	48	1
STR	46	96	2
SI_	46	96	2	96	48	5
HLD	46	96	3	96
BST	46	192	2
SI_	46	192	2	96	48	7
BRK	46	288	2
XST	47	0	5
SI_	47	0	5	96	48	2
SCL	47	0	5	96	48	2
XTP	47	48	5
XTP	47	96	5
XTP	47	192	0
XTP	47	192	7
TAP	47	288	2
TAP	47	288	3
TAP	47	336	3
TAP	47	336	4
HLD	48	0	4	48
HLD	48	0	5	48
HLD	48	96	2	48
HLD	48	96	3	48
HLD	48	192	4	48
HLD	48	192	6	48
TAP	48	288	3
TAP	48	288	4
TAP	48	336	2
BRK	49	0	1
BRK	49	0	3
TAP	49	48	0
TAP	49	48	7
BRK	49	96	4
BRK	49	96	6
TAP	49	144	2
TAP	49	144	3
TTP	49	192	0	B	0	M1
TTP	49	192	0	C	1	M1
TTP	49	192	1	E	0	M1
TTP	49	192	4	B	0	M1
TTP	49	192	5	E	0	M1
STR	50	0	5
SCR	50	0	5	96	288	2
TAP	50	192	3
TAP	50	288	4
STR	51	0	5
SCR	51	0	5	96	288	2
TAP	51	192	3
TAP	51	288	4
STR	52	0	5
SCR	52	0	5	96	288	2
TAP	52	192	3
TAP	52	288	4
BRK	53	0	5
TAP	53	96	4
TAP	53	192	3
TAP	53	288	2
TAP	54	0	1
STR	54	0	6
SCL	54	0	6	96	288	1
TAP	54	192	0
TAP	54	288	7
STR	55	0	6
SCL	55	0	6	96	288	1
TAP	55	192	0
TAP	55	288	7
STR	56	0	6
SCL	56	0	6	96	288	1
TAP	56	192	0
TAP	56	288	7
BRK	57	0	6
TAP	57	96	7
TAP	57	192	0
TAP	57	192	1
XTP	57	288	2
XST	57	288	3
SI_	57	288	3	96	48	1
TAP	58	0	3
STR	58	0	5
SI_	58	0	5	96	48	7
STR	58	96	3
SI_	58	96	3	96	48	1
TAP	58	96	5
TAP	58	192	3
STR	58	192	5
SI_	58	192	5	96	48	7
STR	58	288	3
SI_	58	288	3	96	48	0
TAP	58	288	5
TAP	59	0	3
STR	59	0	4
SI_	59	0	4	96	48	7
STR	59	96	3
SI_	59	96	3	96	48	0
TAP	59	96	4
TAP	59	192	3
STR	59	192	4
SI_	59	192	4	96	48	7
STR	59	288	2
SI_	59	288	2	96	48	0
TAP	59	288	4
TAP	60	0	2
STR	60	0	4
SI_	60	0	4	96	48	6
STR	60	96	2
SI_	60	96	2	96	48	0
TAP	60	96	4
TAP	60	192	2
STR	60	192	4
SI_	60	192	4	96	48	6
TAP	60	288	2
TAP	60	288	4
THO	61	0	0	96	C	1	M1
TTP	61	96	1	B	0	M1
TTP	61	96	6	B	0	M1
STR	61	288	3
SXR	61	288	3	96	192	4
TAP	61	288	5
TAP	62	0	7
TAP	62	96	7
TAP	62	192	7
TAP	62	288	4
TAP	62	288	7
TAP	62	336	4
TAP	63	0	4
HLD	63	0	5	96
TAP	63	96	4
TAP	63	192	5
TAP	63	240	6
TAP	63	288	3
STR	63	288	7
SXR	63	288	7	96	192	0
TAP	64	0	3
TAP	64	96	3
TAP	64	192	3
TAP	64	288	0
TAP	64	288	3
TAP	64	336	0
TAP	65	0	0
BST	65	0	2
SI_	65	0	2	96	48	7
BST	65	96	6
SI_	65	96	6	96	48	3
BST	65	192	1
SI_	65	192	1	96	48	4
BST	65	288	5
SXL	65	288	5	96	240	1
TAP	66	0	3
TAP	66	96	3
TAP	66	192	3
TAP	66	288	3
TAP	66	336	2
HLD	67	0	1	96
TAP	67	0	4
TAP	67	96	0
TAP	67	192	0
TAP	67	240	1
STR	67	288	2
SXL	67	288	2	96	240	6
TAP	67	288	7
TAP	68	0	7
TAP	68	96	7
TAP	68	192	7
STR	68	288	7
SCL	68	288	7	96	192	1
TAP	68	336	0
BRK	69	0	1
TAP	69	240	0
TAP	69	288	0
TAP	69	288	7
TAP	70	0	1
TAP	70	24	3
TAP	70	48	2
TAP	70	72	3
TAP	70	96	1
TAP	70	144	1
TAP	70	144	3
STR	70	192	0
SCR	70	192	0	96	48	3
XTP	70	192	4
XTP	70	240	4
TAP	71	0	6
TAP	71	24	4
TAP	71	48	5
TAP	71	72	4
TAP	71	96	6
TAP	71	144	3
TAP	71	144	7
TAP	71	192	0
TAP	71	240	1
STR	71	288	2
SCL	71	288	2	96	240	5
STR	71	288	3
SUR	71	288	3	96	240	4
TAP	73	0	3
TAP	73	24	4
TAP	73	48	2
TAP	73	72	5
TAP	73	96	0
TAP	73	120	7
TAP	73	144	1
TAP	73	168	6
TAP	73	192	3
TAP	73	216	4
TAP	73	240	2
TAP	73	264	5
TAP	73	288	3
TAP	73	312	4
TAP	73	336	1
TAP	73	360	6
STR	74	0	3
SI_	74	0	3	96	288	0
STR	75	0	4
SI_	75	0	4	96	288	7
STR	76	0	3
SI_	76	0	3	96	288	0
STR	77	0	4
SI_	77	0	4	96	288	7
STR	78	0	3
SI_	78	0	3	96	288	0
TTP	78	192	6	B	0	M1
TTP	78	288	5	B	0	M1
STR	79	0	4
SI_	79	0	4	96	288	7
TTP	79	192	1	B	0	M1
TTP	79	288	2	B	0	M1
HLD	80	0	3	288
TAP	80	192	4
TAP	80	288	4
BRK	81	0	3
BRK	81	24	4
BRK	81	48	3
BRK	81	72	4
BRK	81	96	3
BRK	81	120	4
BRK	81	144	3
TTP	81	192	3	B	0	M1
TTP	81	192	3	E	0	M1
TTP	81	192	4	B	0	M1
TTP	81	192	5	E	0	M1
TTP	81	200	0	C	1	M1
TTP	81	204	2	B	0	M1
TTP	81	204	5	B	0	M1
TTP	81	216	1	B	0	M1
TTP	81	216	6	B	0	M1
TTP	81	228	1	E	0	M1
TTP	81	228	7	E	0	M1
STR	82	0	5
SI_	82	0	5	96	48	0
TAP	82	48	4
STR	82	96	2
SI_	82	96	2	96	48	7
TAP	82	144	3
STR	82	192	5
SI_	82	192	5	96	48	0
TAP	82	240	4
TAP	82	288	3
TAP	82	336	3
TAP	83	0	2
TAP	83	0	7
TAP	83	48	6
TAP	83	72	7
TAP	83	96	5
TAP	83	144	0
BRK	83	192	2
BRK	83	192	6
XST	83	288	4
SI_	83	288	4	96	48	0
XST	83	288	5
SCR	83	288	5	96	48	0
TAP	84	0	4
TAP	84	0	5
XST	84	96	1
SV_	84	96	1	96	48	6
XST	84	96	2
SCR	84	96	2	96	48	5
TAP	84	192	1
TAP	84	192	2
TAP	84	288	7
TAP	84	336	7
XTP	85	0	6
TAP	85	12	5
TAP	85	24	4
TAP	85	36	3
TAP	85	48	2
TAP	85	60	1
TAP	85	72	0
TAP	85	84	7
XTP	85	96	6
TAP	85	108	5
TAP	85	120	4
TAP	85	132	3
TAP	85	144	2
TAP	85	156	1
TAP	85	168	0
TAP	85	180	7
TTP	85	192	0	C	1	M1
BRK	85	192	6
TAP	86	0	0
TAP	86	0	7
TAP	86	48	1
STR	86	96	2
SI_	86	96	2	96	48	5
HLD	86	96	3	96
BST	86	192	2
SI_	86	192	2	96	48	7
BRK	86	288	2
XST	87	0	5
SI_	87	0	5	96	48	2
SCL	87	0	5	96	48	2
XTP	87	48	5
XTP	87	96	5
XTP	87	192	0
XTP	87	192	7
TAP	87	288	1
TAP	87	288	6
TAP	87	336	2
TAP	87	336	5
HLD	88	0	3	48
HLD	88	0	4	48
HLD	88	96	1	48
HLD	88	96	3	48
HLD	88	192	4	48
HLD	88	192	6	48
TAP	88	288	3
TAP	88	288	4
TAP	88	336	2
BRK	89	0	1
BRK	89	0	3
TAP	89	48	0
TAP	89	48	7
BRK	89	96	4
BRK	89	96	6
TAP	89	144	2
TAP	89	144	3
TTP	89	192	0	C	1	M1
TTP	89	192	1	B	0	M1
TTP	89	192	2	B	0	M1
TTP	89	192	2	E	0	M1
TTP	89	192	3	B	0	M1
TTP	89	192	3	E	0	M1
BRK	89	288	4
BRK	89	288	6
TAP	89	336	0
TAP	89	336	7
BRK	90	0	1
BRK	90	0	3
TAP	90	48	4
TAP	90	48	5
TTP	90	96	0	C	1	M1
TTP	90	96	4	B	0	M1
TTP	90	96	5	B	0	M1
TTP	90	96	5	E	0	M1
TTP	90	96	6	B	0	M1
TTP	90	96	6	E	0	M1
BRK	90	192	1
BRK	90	192	3
BRK	90	240	0
BRK	90	240	7
BRK	90	288	4
BRK	90	288	6
BRK	90	336	2
BRK	90	336	3
TTP	91	0	0	C	1	M1
TTP	91	0	1	B	0	M1
TTP	91	0	1	E	0	M1
TTP	91	0	5	B	0	M1
TTP	91	0	5	E	0	M1

T_REC_TAP	387
T_REC_BRK	61
T_REC_XTP	41
T_REC_HLD	32
T_REC_XHO	0
T_REC_STR	60
T_REC_BST	13
T_REC_XST	11
T_REC_TTP	63
T_REC_THO	4
T_REC_SLD	88
T_REC_ALL	760
T_NUM_TAP	562
T_NUM_BRK	74
T_NUM_HLD	36
T_NUM_SLD	88
T_NUM_ALL	760
T_JUDGE_TAP	636
T_JUDGE_HLD	56
T_JUDGE_SLD	88
T_JUDGE_ALL	780
TTM_EACHPAIRS	135
TTM_SCR_TAP	281000
TTM_SCR_BRK	192400
TTM_SCR_HLD	36000
TTM_SCR_SLD	132000
TTM_SCR_ALL	641400
TTM_SCR_S	615000
TTM_SCR_SS	634000
TTM_RAT_ACV	10116

