VERSION	0.00.00	1.03.00
FES_MODE	0
BPM_DEF	147.000	147.000	147.000	147.000
MET_DEF	4	4
RESOLUTION	384
CLK_DEF	384
COMPATIBLE_CODE	MA2

BPM	0	0	147.000
MET	0	0	4	4

TTP	1	0	0	C	1	M1
TTP	1	0	1	B	0	M1
TTP	1	0	2	B	0	M1
TTP	1	0	5	B	0	M1
TTP	1	0	6	B	0	M1
TAP	2	0	5
TAP	2	48	5
TAP	2	96	4
XTP	2	192	3
XTP	2	192	6
XTP	2	288	1
XTP	2	288	4
TAP	3	0	3
HLD	3	0	6	96
STR	3	96	4
SI_	3	96	4	96	96	0
TAP	4	0	2
TAP	4	48	2
TAP	4	96	3
XTP	4	192	1
XTP	4	192	4
XTP	4	288	3
XTP	4	288	6
TAP	5	0	2
TAP	5	0	4
BRK	5	96	1
BRK	5	96	5
TAP	6	0	3
TAP	6	0	5
TAP	6	96	2
TAP	6	96	4
BRK	6	192	0
BRK	6	192	7
BRK	6	240	0
BRK	6	240	7
HLD	7	0	2	96
HLD	7	96	0	96
HLD	7	192	7	96
STR	7	288	5
SCR	7	288	5	96	240	3
XTP	9	0	1
XTP	9	0	5
XHO	9	96	2	144
XHO	9	96	6	144
TAP	10	0	2
TAP	10	0	4
TAP	10	96	3
TAP	10	96	5
BRK	10	192	0
BRK	10	192	7
BRK	10	240	0
BRK	10	240	7
HLD	11	0	5	96
HLD	11	96	7	96
HLD	11	192	0	96
STR	11	288	2
SCL	11	288	2	96	240	4
XTP	13	0	1
XTP	13	0	6
XHO	13	96	1	144
XHO	13	96	6	144
TAP	14	0	4
TAP	14	0	5
TAP	14	96	3
TAP	14	192	2
TAP	14	240	2
TAP	14	288	1
TAP	14	288	3
BRK	15	0	0
BRK	15	48	0
TAP	15	96	7
TAP	15	192	5
TAP	15	240	5
TAP	15	288	4
HLD	16	0	3	96
TAP	16	96	4
TAP	16	192	5
TAP	16	240	5
TAP	16	288	4
TAP	16	288	6
BRK	17	0	7
BRK	17	48	7
TAP	17	96	0
TAP	17	192	2
TAP	17	240	2
TAP	17	288	3
HLD	18	0	5	192
TAP	18	96	4
HLD	18	192	2	192
TAP	18	288	3
HLD	19	0	6	192
TAP	19	96	5
HLD	19	192	1	96
STR	19	288	2
SUR	19	288	2	96	240	4
TAP	21	96	3
TAP	21	96	4
XTP	21	192	2
XTP	21	192	5
XTP	21	288	1
XTP	21	288	6
HLD	22	0	5	576
TAP	22	96	3
TAP	22	192	4
TAP	22	288	6
TAP	23	0	7
TAP	23	96	7
TAP	23	192	0
TAP	23	288	1
HLD	24	0	2	576
TAP	24	96	4
TAP	24	192	3
TAP	24	288	1
XTP	25	0	0
XTP	25	96	0
TAP	25	192	7
TAP	25	288	6
HLD	26	0	5	576
TAP	26	96	3
TAP	26	192	4
TAP	26	288	6
TAP	27	0	7
TAP	27	96	7
TAP	27	192	0
TAP	27	288	1
HLD	28	0	2	480
TAP	28	96	4
TAP	28	192	3
TAP	28	288	1
XTP	29	0	0
XTP	29	96	0
TAP	29	192	1
TAP	29	192	7
TAP	30	0	3
TAP	30	0	5
TAP	30	96	2
TAP	30	96	4
XTP	30	192	1
XTP	30	192	3
XTP	30	240	1
XTP	30	240	3
TAP	31	0	2
TAP	31	0	4
TAP	31	96	3
TAP	31	96	5
TAP	31	192	4
TAP	31	192	6
STR	31	288	7
SCL	31	288	7	96	240	0
BRK	33	0	0
BRK	33	0	7
TAP	33	192	3
TAP	33	192	4
TAP	33	288	2
TAP	33	288	5
HLD	34	0	6	96
TAP	34	96	7
HLD	34	192	1	96
TAP	34	288	0
XTP	35	0	2
XTP	35	48	2
XTP	35	96	3
XTP	35	192	1
XTP	35	192	4
TAP	35	288	6
TAP	35	288	7
TAP	36	0	3
TAP	36	0	4
TAP	36	96	0
TAP	36	96	1
TAP	36	192	3
TAP	36	192	4
TAP	36	288	6
TAP	36	288	7
BRK	37	0	3
BRK	37	0	4
BRK	37	96	0
BRK	37	96	7
BRK	37	192	2
BRK	37	192	6
HLD	38	0	1	96
TAP	38	96	0
HLD	38	192	6	96
TAP	38	288	7
TAP	39	0	5
TAP	39	48	5
TAP	39	96	4
TAP	39	192	3
TAP	39	192	6
TAP	39	288	0
TAP	39	288	7
HLD	40	0	0	96
HLD	40	0	7	96
TAP	40	192	2
TAP	40	192	6
TAP	40	288	1
TAP	40	288	5
BRK	41	0	3
BRK	41	0	4
BRK	41	48	3
BRK	41	48	4
BST	41	96	3
SXR	41	96	3	96	96	1
BST	41	96	4
SXL	41	96	4	96	96	6
HLD	42	0	1	96
TAP	42	96	0
HLD	42	192	6	96
TAP	42	288	7
XTP	43	0	5
XTP	43	48	5
XTP	43	96	4
XTP	43	192	3
XTP	43	192	6
TAP	43	288	0
TAP	43	288	1
TAP	44	0	2
TAP	44	0	7
TAP	44	96	2
TAP	44	96	3
TAP	44	192	1
TAP	44	192	4
BRK	44	288	4
BRK	44	288	5
BRK	45	0	6
BRK	45	0	7
BRK	45	96	0
BRK	45	96	1
BRK	45	192	2
BRK	45	192	3
HLD	46	0	6	96
TAP	46	96	4
BRK	46	192	2
BRK	46	288	2
TAP	47	0	1
TAP	47	48	1
TAP	47	96	3
TAP	47	192	0
TAP	47	192	4
TAP	47	288	2
TAP	47	288	6
HLD	48	0	0	96
HLD	48	0	7	96
TAP	48	192	1
TAP	48	192	5
TAP	48	288	2
TAP	48	288	6
BRK	49	0	3
BRK	49	0	4
BRK	49	48	3
BRK	49	48	4
BRK	49	96	3
BRK	49	96	4
BRK	49	192	1
BRK	49	192	6
HLD	50	0	2	192
HLD	50	192	0	192
HLD	51	0	7	192
HLD	51	192	5	192
TAP	52	0	4
TAP	52	96	5
TAP	52	192	6
TAP	52	288	7
TAP	52	336	7
XTP	53	0	0
TAP	53	96	1
TAP	53	192	2
TAP	53	288	3
TAP	53	288	4
HLD	54	0	5	192
HLD	54	192	7	192
HLD	55	0	0	192
HLD	55	192	2	192
TAP	56	0	3
TAP	56	96	2
TAP	56	192	1
TAP	56	288	0
TAP	56	336	0
XTP	57	0	7
TAP	57	96	6
TAP	57	192	5
TAP	57	288	3
TAP	57	288	4
TAP	58	0	2
TAP	58	48	2
TAP	58	96	3
XTP	58	192	1
XTP	58	192	4
XTP	58	288	3
XTP	58	288	6
HLD	59	0	1	96
TAP	59	0	4
STR	59	96	3
SI_	59	96	3	96	96	7
TAP	60	0	5
TAP	60	48	5
TAP	60	96	4
XTP	60	192	3
XTP	60	192	6
XTP	60	288	1
XTP	60	288	4
TAP	61	0	3
TAP	61	0	5
BRK	61	96	2
BRK	61	96	6
TAP	61	288	3
TAP	61	288	4
HLD	62	0	1	384
TTP	62	96	4	B	0	M1
TTP	62	192	2	B	0	M1
TTP	62	288	1	E	0	M1
TAP	63	0	7
TAP	63	96	7
TAP	63	192	2
TAP	63	288	4
HLD	64	0	6	384
TTP	64	96	3	B	0	M1
TTP	64	192	5	B	0	M1
TTP	64	288	7	E	0	M1
XTP	65	0	0
XTP	65	96	0
TAP	65	192	5
TAP	65	288	3
HLD	66	0	1	384
TTP	66	96	4	B	0	M1
TTP	66	192	2	B	0	M1
TTP	66	288	1	E	0	M1
TAP	67	0	7
TAP	67	96	7
TAP	67	192	2
TAP	67	288	4
HLD	68	0	6	384
TTP	68	96	3	B	0	M1
TTP	68	192	5	B	0	M1
TTP	68	288	7	E	0	M1
XTP	69	0	0
XTP	69	96	0
BRK	69	192	7
TAP	70	0	2
TAP	70	0	4
TAP	70	96	3
TAP	70	96	5
XTP	70	192	4
XTP	70	192	6
XTP	70	240	4
XTP	70	240	6
TAP	71	0	3
TAP	71	0	5
TAP	71	96	2
TAP	71	96	4
TAP	71	192	1
TAP	71	192	3
STR	71	288	0
SCR	71	288	0	96	240	7
TTP	73	0	0	C	1	M1
HLD	74	0	5	192
HLD	74	192	4	192
HLD	75	0	3	192
TAP	75	192	2
HLD	76	0	2	192
HLD	76	192	3	192
HLD	77	0	4	192
TAP	77	192	5
TAP	78	0	6
HLD	78	96	6	96
TAP	78	192	4
HLD	78	288	4	96
TAP	79	0	3
HLD	79	96	3	96
TAP	79	192	1
HLD	79	288	1	96
HLD	80	0	4	288
HLD	80	192	3	96
TTP	81	0	0	C	1	M1
TTP	81	0	3	B	0	M1
TTP	81	0	4	B	0	M1
TTP	81	192	0	C	1	M1
TTP	81	192	1	B	0	M1
TTP	81	192	2	B	0	M1
TTP	81	192	5	B	0	M1
TTP	81	192	6	B	0	M1
TAP	82	0	0
TAP	82	0	7
TAP	82	96	0
TAP	82	96	7
TAP	82	192	1
TAP	82	192	6
TAP	82	288	3
TAP	82	288	4
XTP	83	0	2
XTP	83	48	3
XTP	83	96	4
XTP	83	192	1
XTP	83	192	5
TAP	83	288	6
TAP	83	288	7
TAP	84	0	0
TAP	84	0	5
TAP	84	96	4
TAP	84	96	5
TAP	84	192	3
TAP	84	192	6
BRK	84	288	2
BRK	84	288	3
BRK	85	0	0
BRK	85	0	1
BRK	85	96	6
BRK	85	96	7
BRK	85	192	4
BRK	85	192	5
HLD	86	0	1	96
TAP	86	96	0
BRK	86	192	2
BRK	86	288	2
TAP	87	0	6
TAP	87	48	6
TAP	87	96	4
TAP	87	192	3
TAP	87	192	7
TAP	87	288	1
TAP	87	288	5
HLD	88	0	0	96
HLD	88	0	7	96
TAP	88	192	2
TAP	88	192	6
TAP	88	288	1
TAP	88	288	5
BRK	89	0	4
BRK	89	0	5
BRK	89	48	4
BRK	89	48	5
BRK	89	96	4
BRK	89	96	5
BRK	89	192	2
BRK	89	192	7
BRK	89	288	2
BRK	89	288	3
BRK	89	336	2
BRK	89	336	3
BRK	90	0	2
BRK	90	0	3
BRK	90	96	0
BRK	90	96	5
BRK	90	192	0
BRK	90	192	7
BRK	90	240	0
BRK	90	240	7
BRK	90	288	0
BRK	90	288	7
BRK	91	0	1
BRK	91	0	6

T_REC_TAP	210
T_REC_BRK	81
T_REC_XTP	57
T_REC_HLD	55
T_REC_XHO	4
T_REC_STR	7
T_REC_BST	2
T_REC_XST	0
T_REC_TTP	26
T_REC_THO	0
T_REC_SLD	9
T_REC_ALL	451
T_NUM_TAP	300
T_NUM_BRK	83
T_NUM_HLD	59
T_NUM_SLD	9
T_NUM_ALL	451
T_JUDGE_TAP	383
T_JUDGE_HLD	222
T_JUDGE_SLD	9
T_JUDGE_ALL	614
TTM_EACHPAIRS	118
TTM_SCR_TAP	150000
TTM_SCR_BRK	215800
TTM_SCR_HLD	59000
TTM_SCR_SLD	13500
TTM_SCR_ALL	438300
TTM_SCR_S	417100
TTM_SCR_SS	430000
TTM_RAT_ACV	10193

