VERSION	0.00.00	1.03.00
FES_MODE	0
BPM_DEF	147.000	147.000	147.000	147.000
MET_DEF	4	4
RESOLUTION	384
CLK_DEF	384
COMPATIBLE_CODE	MA2

BPM	0	0	147.000
MET	0	0	4	4

TAP	2	0	2
TAP	2	96	2
TAP	2	192	2
TAP	2	192	3
TAP	3	0	5
TAP	3	96	5
TAP	3	192	4
TAP	3	192	5
TAP	4	0	2
TAP	4	96	2
TAP	4	192	2
TAP	4	192	3
XTP	5	0	3
XTP	5	0	4
BRK	5	96	2
BRK	5	96	5
TAP	6	0	6
TAP	6	96	6
XTP	6	192	7
TAP	7	0	1
TAP	7	96	1
TAP	7	192	0
TAP	8	0	6
TAP	8	96	6
TAP	8	192	7
TAP	9	0	0
TAP	9	96	0
TAP	9	192	1
TAP	9	192	7
TAP	10	0	2
TAP	10	96	2
XTP	10	192	3
TAP	11	0	5
TAP	11	96	5
TAP	11	192	4
TAP	12	0	2
TAP	12	96	2
TAP	12	192	3
TAP	13	0	3
TAP	13	0	4
TAP	13	96	3
TAP	13	96	4
XTP	13	192	2
XTP	13	192	5
HLD	14	0	6	192
HLD	14	192	7	192
HLD	15	0	0	192
XTP	15	192	1
HLD	16	0	2	192
HLD	16	192	3	192
HLD	17	0	4	192
TAP	17	192	5
HLD	18	0	6	96
TAP	18	96	7
TAP	18	192	7
HLD	19	0	1	96
TAP	19	96	0
TAP	19	192	0
TAP	20	0	7
TAP	20	96	7
TAP	20	192	0
TAP	20	288	0
XTP	21	0	0
XTP	21	0	7
XTP	21	96	0
XTP	21	96	7
XTP	21	192	1
XTP	21	192	6
STR	22	0	0
SCR	22	0	0	96	384	5
STR	24	0	7
SCL	24	0	7	96	384	2
STR	26	0	1
SCR	26	0	1	96	384	6
STR	28	0	7
SXR	28	0	7	96	384	3
STR	30	0	2
SI_	30	0	2	96	144	7
STR	31	0	6
SI_	31	0	6	96	144	3
TAP	32	0	2
TAP	32	192	1
TAP	33	0	0
TAP	33	0	7
TAP	33	96	0
TAP	33	96	7
BRK	33	192	1
BRK	33	192	6
TAP	34	0	2
TAP	34	96	2
TAP	34	192	2
TAP	34	192	3
TAP	34	288	2
TAP	34	288	3
TAP	35	0	1
TAP	35	96	0
TAP	35	192	1
TAP	35	192	7
TAP	36	0	6
TAP	36	96	6
TAP	36	192	6
TAP	36	192	7
TAP	36	288	6
TAP	36	288	7
XTP	37	0	5
XTP	37	96	3
XTP	37	96	4
XTP	37	192	3
XTP	37	192	4
TAP	38	0	5
TAP	38	96	5
TAP	38	192	4
TAP	38	192	5
TAP	38	288	4
TAP	38	288	5
TAP	39	0	6
TAP	39	96	7
TAP	39	192	0
TAP	39	192	6
TAP	40	0	1
TAP	40	96	1
TAP	40	192	0
TAP	40	192	1
TAP	40	288	0
TAP	40	288	1
XTP	41	0	2
XTP	41	96	3
XTP	41	96	4
XTP	41	192	2
XTP	41	192	5
TAP	42	0	6
TAP	42	96	6
TAP	42	192	6
TAP	42	192	7
TAP	42	288	6
TAP	42	288	7
TAP	43	0	5
TAP	43	96	4
TAP	43	192	3
TAP	43	192	5
TAP	44	0	2
TAP	44	96	2
TAP	44	192	2
TAP	44	192	3
TAP	44	288	2
TAP	44	288	3
XTP	45	0	1
XTP	45	96	0
XTP	45	96	7
XTP	45	192	0
XTP	45	192	7
TAP	46	0	1
TAP	46	96	1
TAP	46	192	0
TAP	46	192	1
TAP	46	288	0
TAP	46	288	1
TAP	47	0	2
TAP	47	96	3
TAP	47	192	2
TAP	47	192	4
TAP	48	0	5
TAP	48	96	5
TAP	48	192	4
TAP	48	192	5
TAP	48	288	4
TAP	48	288	5
XTP	49	0	6
XTP	49	96	0
XTP	49	96	7
BRK	49	192	1
BRK	49	192	6
TTP	50	0	0	B	0	L1
TTP	51	0	1	B	0	L1
TTP	52	0	2	B	0	L1
TTP	53	0	3	B	0	L1
TTP	54	0	4	B	0	L1
TTP	55	0	5	B	0	L1
TTP	56	0	6	B	0	L1
TTP	57	0	0	C	1	L1
XTP	58	0	1
TAP	58	96	1
TAP	58	192	0
TAP	58	192	1
TAP	59	0	6
TAP	59	96	6
TAP	59	192	6
TAP	59	192	7
TAP	60	0	1
TAP	60	96	1
TAP	60	192	0
TAP	60	192	1
TAP	61	0	0
TAP	61	0	7
BRK	61	96	1
BRK	61	96	6
STR	62	0	7
SCL	62	0	7	96	384	2
STR	64	0	0
SCR	64	0	0	96	384	5
STR	66	0	6
SCL	66	0	6	96	384	1
STR	68	0	0
SXL	68	0	0	96	384	4
STR	70	0	5
SI_	70	0	5	96	144	0
STR	71	0	1
SI_	71	0	1	96	144	4
TAP	72	0	5
TAP	72	192	6
TAP	73	0	0
TAP	73	0	7
TAP	73	96	0
TAP	73	96	7
BRK	73	192	1
BRK	73	192	6
THO	74	0	0	1152	C	0	L1
TTP	78	0	3	E	0	L1
TTP	78	0	5	E	0	L1
TTP	79	0	2	B	0	L1
TTP	79	0	5	B	0	L1
TTP	80	0	1	B	0	L1
TTP	80	0	6	B	0	L1
XTP	81	0	0
XTP	81	0	7
XTP	81	96	0
XTP	81	96	7
BRK	81	192	1
BRK	81	192	6
TAP	82	0	5
TAP	82	96	4
TAP	82	96	5
TAP	82	192	5
TAP	82	288	4
TAP	82	288	5
TAP	83	0	6
TAP	83	96	7
TAP	83	192	0
TAP	83	192	6
TAP	84	0	1
TAP	84	96	0
TAP	84	96	1
TAP	84	192	1
TAP	84	288	0
TAP	84	288	1
XTP	85	0	2
XTP	85	96	3
XTP	85	192	3
XTP	85	192	4
TAP	86	0	2
TAP	86	96	2
TAP	86	96	3
TAP	86	192	2
TAP	86	288	2
TAP	86	288	3
TAP	87	0	1
TAP	87	96	0
TAP	87	192	1
TAP	87	192	7
TAP	88	0	1
TAP	88	96	0
TAP	88	96	1
TAP	88	192	1
TAP	88	288	1
XTP	89	0	0
XTP	89	0	7
XTP	89	96	0
XTP	89	96	7
XTP	89	192	0
XTP	89	192	7
XTP	89	288	1
XTP	89	288	6
XTP	90	0	1
XTP	90	0	6
XTP	90	96	1
XTP	90	96	6
XTP	90	192	2
XTP	90	192	5
XTP	90	288	2
XTP	90	288	5
BRK	91	0	2
BRK	91	0	5

T_REC_TAP	165
T_REC_BRK	14
T_REC_XTP	56
T_REC_HLD	8
T_REC_XHO	0
T_REC_STR	12
T_REC_BST	0
T_REC_XST	0
T_REC_TTP	14
T_REC_THO	1
T_REC_SLD	12
T_REC_ALL	282
T_NUM_TAP	247
T_NUM_BRK	14
T_NUM_HLD	9
T_NUM_SLD	12
T_NUM_ALL	282
T_JUDGE_TAP	261
T_JUDGE_HLD	52
T_JUDGE_SLD	12
T_JUDGE_ALL	325
TTM_EACHPAIRS	73
TTM_SCR_TAP	123500
TTM_SCR_BRK	36400
TTM_SCR_HLD	9000
TTM_SCR_SLD	18000
TTM_SCR_ALL	186900
TTM_SCR_S	179950
TTM_SCR_SS	185500
TTM_RAT_ACV	10075

