VERSION	0.00.00	1.03.00
FES_MODE	0
BPM_DEF	147.000	147.000	147.000	147.000
MET_DEF	4	4
RESOLUTION	384
CLK_DEF	384
COMPATIBLE_CODE	MA2

BPM	0	0	147.000
MET	0	0	4	4

TAP	2	0	0
TAP	3	0	0
TAP	4	0	7
BRK	5	0	7
TAP	6	0	0
TAP	6	192	0
TAP	7	0	0
TAP	8	0	1
TAP	8	192	1
TAP	9	0	1
TAP	10	0	2
TAP	10	192	2
TAP	11	0	2
TAP	12	0	3
TAP	12	192	3
TAP	13	0	3
TAP	13	0	4
TAP	14	0	4
TAP	14	192	4
TAP	15	0	4
TAP	16	0	5
TAP	16	192	5
TAP	17	0	5
TAP	18	0	6
TAP	18	192	6
TAP	19	0	6
TAP	20	0	7
TAP	20	192	7
TAP	21	0	0
TAP	21	0	7
STR	22	0	0
SI_	22	0	0	96	288	3
STR	24	0	4
SI_	24	0	4	96	288	7
STR	26	0	0
SI_	26	0	0	96	288	3
STR	28	0	4
SI_	28	0	4	96	288	7
TTP	30	0	0	B	0	L1
TTP	31	0	7	B	0	L1
THO	32	0	0	384	C	1	L1
TAP	34	0	7
TAP	34	192	7
TAP	35	0	6
TAP	35	96	6
TAP	35	192	6
TAP	36	0	5
TAP	36	192	5
TAP	37	0	4
TAP	37	96	4
XTP	37	192	3
XTP	37	192	4
TAP	38	0	3
TAP	38	192	3
TAP	39	0	2
TAP	39	96	2
TAP	39	192	2
TAP	40	0	1
TAP	40	192	1
TAP	41	0	0
TAP	41	96	0
BRK	41	192	0
BRK	41	192	7
TAP	42	0	0
TAP	42	192	0
TAP	43	0	1
TAP	43	96	1
TAP	43	192	1
TAP	44	0	2
TAP	44	192	2
TAP	45	0	3
TAP	45	96	3
XTP	45	192	3
XTP	45	192	4
TAP	46	0	4
TAP	46	192	4
TAP	47	0	5
TAP	47	96	5
TAP	47	192	5
TAP	48	0	6
TAP	48	192	6
TAP	49	0	7
TAP	49	96	7
BRK	49	192	0
BRK	49	192	7
STR	50	0	7
SI_	50	0	7	96	288	4
STR	52	0	0
SI_	52	0	0	96	288	3
STR	54	0	7
SI_	54	0	7	96	288	3
STR	56	0	0
SI_	56	0	0	96	288	4
TAP	58	0	7
TAP	58	96	7
TAP	58	192	7
TAP	59	0	6
TAP	59	0	7
TAP	60	0	0
TAP	60	96	0
TAP	60	192	0
XTP	61	0	0
XTP	61	0	1
HLD	62	0	2	384
HLD	62	0	3	384
HLD	64	0	4	384
HLD	64	0	5	384
HLD	66	0	6	384
HLD	66	0	7	384
HLD	68	0	0	384
HLD	68	0	1	384
TAP	70	0	7
TAP	70	192	7
TAP	71	0	0
TAP	71	192	0
STR	72	0	0
SI_	72	0	0	96	288	3
STR	72	0	7
SI_	72	0	7	96	288	4
TTP	74	0	4	E	0	L1
TTP	75	0	3	B	0	L1
TTP	76	0	4	B	0	L1
TTP	77	0	2	B	0	L1
TTP	78	0	5	B	0	L1
TTP	79	0	1	B	0	L1
THO	80	0	0	384	C	1	L1
TAP	82	0	7
TAP	82	96	7
TAP	82	192	7
TAP	83	0	6
TAP	83	96	6
TAP	83	192	6
TAP	84	0	5
TAP	84	96	5
TAP	84	192	5
TAP	85	0	3
TAP	85	0	4
TAP	85	96	3
TAP	85	96	4
BRK	85	192	3
BRK	85	192	4
TAP	86	0	2
TAP	86	96	2
TAP	86	192	2
TAP	87	0	1
TAP	87	96	1
TAP	87	192	1
TAP	88	0	0
TAP	88	96	0
TAP	88	192	0
XTP	89	0	7
XTP	89	96	7
XTP	89	192	7
XTP	89	288	0
XTP	90	0	0
XTP	90	96	0
XTP	90	192	0
XTP	90	192	7
XTP	90	288	0
XTP	90	288	7
BRK	91	0	1
BRK	91	0	6

T_REC_TAP	99
T_REC_BRK	9
T_REC_XTP	16
T_REC_HLD	8
T_REC_XHO	0
T_REC_STR	10
T_REC_BST	0
T_REC_XST	0
T_REC_TTP	8
T_REC_THO	2
T_REC_SLD	10
T_REC_ALL	162
T_NUM_TAP	133
T_NUM_BRK	9
T_NUM_HLD	10
T_NUM_SLD	10
T_NUM_ALL	162
T_JUDGE_TAP	142
T_JUDGE_HLD	80
T_JUDGE_SLD	10
T_JUDGE_ALL	232
TTM_EACHPAIRS	19
TTM_SCR_TAP	66500
TTM_SCR_BRK	23400
TTM_SCR_HLD	10000
TTM_SCR_SLD	15000
TTM_SCR_ALL	114900
TTM_SCR_S	110600
TTM_SCR_SS	114000
TTM_RAT_ACV	10078

