VERSION	0.00.00	1.03.00
FES_MODE	0
BPM_DEF	155.000	155.000	155.000	155.000
MET_DEF	4	4
RESOLUTION	384
CLK_DEF	384
COMPATIBLE_CODE	MA2

BPM	0	0	155.000
MET	0	0	4	4

STR	2	0	1
SI_	2	0	1	96	48	4
STR	2	0	3
SI_	2	0	3	96	48	7
XTP	2	96	1
XTP	2	96	3
TAP	2	240	4
BRK	2	288	3
BRK	2	288	5
STR	3	0	4
SI_	3	0	4	96	48	0
STR	3	0	6
SI_	3	0	6	96	48	3
XTP	3	96	4
XTP	3	96	6
TAP	3	240	0
BRK	3	288	1
BRK	3	288	7
STR	4	0	1
SI_	4	0	1	96	48	4
STR	4	0	3
SI_	4	0	3	96	48	7
XTP	4	96	1
XTP	4	96	3
TAP	4	240	7
BRK	4	288	0
BRK	4	288	6
TAP	4	336	1
TAP	5	0	1
TAP	5	0	4
TAP	5	72	2
TAP	5	72	5
TAP	5	144	3
TAP	5	144	6
TAP	5	192	3
TAP	5	192	6
XTP	5	240	5
XTP	5	256	4
XTP	5	272	3
XST	5	288	2
SCR	5	288	2	96	144	0
TTP	6	0	0	C	1	M1
XTP	6	288	2
XTP	6	288	4
TAP	7	0	4
TAP	7	0	5
TAP	7	72	6
TAP	7	96	7
TAP	7	144	1
TAP	7	192	2
TAP	7	192	3
TAP	7	264	1
TAP	7	288	0
TAP	7	336	6
TAP	8	0	4
TAP	8	0	5
TAP	8	72	6
TAP	8	96	7
TAP	8	144	1
TAP	8	192	2
TAP	8	192	3
TAP	8	264	1
TAP	8	288	0
TAP	8	336	6
STR	9	0	4
SCL	9	0	4	96	48	1
TAP	9	0	5
STR	9	96	7
SI_	9	96	7	96	48	3
TAP	9	192	1
STR	9	288	2
SI_	9	288	2	96	48	5
STR	9	288	4
SI_	9	288	4	96	48	7
TAP	10	0	2
STR	10	0	4
SI_	10	0	4	96	48	0
XTP	10	96	4
XTP	10	192	2
XTP	10	192	6
TAP	10	240	7
TAP	10	288	7
TAP	10	336	0
TAP	11	0	0
TAP	11	48	6
TAP	11	72	4
TAP	11	120	1
TAP	11	144	3
HLD	11	192	2	96
TAP	11	192	4
STR	11	288	3
SCR	11	288	3	96	144	2
TTP	12	0	0	C	1	M1
TAP	12	288	3
TAP	12	288	4
XTP	13	0	1
XTP	13	0	6
XTP	13	96	1
XTP	13	96	6
TAP	13	224	0
TAP	13	224	7
TAP	13	256	0
TAP	13	256	7
TAP	13	288	0
TAP	13	288	7
TAP	14	0	3
HLD	14	0	6	192
TAP	14	48	3
TAP	14	96	4
TAP	14	144	4
TAP	14	192	3
TAP	14	264	2
TAP	14	264	5
TAP	14	336	1
TAP	14	336	4
HLD	15	0	1	192
TAP	15	0	4
TAP	15	48	4
TAP	15	96	3
TAP	15	144	3
TAP	15	192	4
TAP	15	264	2
TAP	15	264	5
TAP	15	336	3
TAP	15	336	6
TAP	16	0	3
HLD	16	0	6	192
TAP	16	48	3
TAP	16	96	4
TAP	16	144	4
TAP	16	192	3
TAP	16	264	2
TAP	16	264	5
TAP	16	336	1
TAP	16	336	4
STR	17	0	1
SI_	17	0	1	96	48	5
TAP	17	0	4
STR	17	96	6
SI_	17	96	6	96	48	0
STR	17	192	2
SI_	17	192	2	96	48	4
BRK	17	288	7
TAP	18	0	4
HLD	18	0	6	192
TAP	18	48	4
TAP	18	96	2
TAP	18	144	1
TAP	18	192	0
TAP	18	264	0
TAP	18	264	2
TAP	18	336	1
TAP	18	336	3
HLD	19	0	1	192
TAP	19	0	3
TAP	19	48	3
TAP	19	96	5
TAP	19	144	6
TAP	19	192	7
TAP	19	264	5
TAP	19	264	7
TAP	19	336	4
TAP	19	336	6
TAP	20	0	4
STR	20	0	6
SCR	20	0	6	96	48	1
TAP	20	96	3
STR	20	144	3
SUR	20	144	3	96	144	4
XTP	20	240	5
XTP	20	288	5
XTP	21	0	7
TTP	21	96	2	B	0	M1
TTP	21	96	2	E	0	M1
TTP	21	96	3	E	0	M1
TTP	21	96	5	B	0	M1
TTP	21	96	5	E	0	M1
TTP	21	96	6	E	0	M1
TAP	21	240	3
TAP	21	240	4
TAP	21	288	3
TAP	21	288	4
HLD	22	0	2	192
TAP	22	0	7
TAP	22	48	7
TAP	22	96	0
TAP	22	144	0
TAP	22	192	7
TAP	22	264	1
TAP	22	264	6
TAP	22	336	0
TAP	22	336	5
TAP	23	0	0
HLD	23	0	5	192
TAP	23	48	0
TAP	23	96	7
TAP	23	144	7
TAP	23	192	0
TAP	23	264	1
TAP	23	264	6
TAP	23	336	2
TAP	23	336	7
HLD	24	0	2	192
TAP	24	0	7
TAP	24	48	7
TAP	24	96	0
TAP	24	144	0
TAP	24	192	7
TAP	24	264	1
TAP	24	264	6
TAP	24	336	0
TAP	24	336	5
TAP	25	0	0
STR	25	0	5
SI_	25	0	5	96	48	1
STR	25	96	2
SI_	25	96	2	96	48	4
TAP	25	192	6
TAP	25	240	6
STR	25	288	3
SCL	25	288	3	96	48	1
STR	25	288	5
SCR	25	288	5	96	48	7
TAP	26	0	3
TAP	26	0	5
STR	26	96	2
SCL	26	96	2	96	48	0
STR	26	96	4
SCR	26	96	4	96	48	6
TAP	26	192	2
TAP	26	192	4
TAP	26	288	1
HLD	26	288	5	96
BST	27	0	7
SUL	27	0	7	96	96	2
XTP	27	192	1
TAP	27	240	1
XTP	27	288	0
TAP	27	336	0
TAP	28	0	1
TAP	28	0	7
TAP	28	48	2
TAP	28	72	3
TAP	28	120	6
TAP	28	144	7
TAP	28	192	0
TAP	28	192	6
TAP	28	240	5
TAP	28	264	4
TAP	28	312	1
TAP	28	336	0
TAP	29	0	1
TAP	29	0	7
STR	29	96	3
SCL	29	96	3	96	48	0
STR	29	96	5
SCR	29	96	5	96	48	0
XTP	29	192	3
XTP	29	192	5
XTP	29	288	2
XTP	29	288	6
TAP	30	0	1
TAP	30	0	4
STR	30	48	3
SI_	30	48	3	96	48	0
SI_	30	48	3	96	48	6
TAP	30	72	2
XTP	30	144	3
TAP	30	240	2
TAP	30	240	4
TAP	30	288	2
STR	30	288	4
SCR	30	288	4	96	96	0
STR	31	0	0
SCR	31	0	0	96	96	4
TAP	31	96	4
TAP	31	192	0
TAP	31	240	1
TAP	31	288	2
TAP	31	288	5
TAP	32	0	3
TAP	32	0	6
STR	32	48	4
SCL	32	48	4	96	48	1
SCR	32	48	4	96	48	7
TAP	32	72	5
XTP	32	144	4
TAP	32	240	3
TAP	32	240	5
STR	32	288	3
SLL	32	288	3	96	96	7
TAP	32	288	5
STR	33	0	7
SLL	33	0	7	96	96	3
STR	33	96	3
SCL	33	96	3	96	96	7
TAP	33	192	7
TAP	33	288	3
TAP	33	336	4
HLD	34	0	2	48
HLD	34	0	5	48
HLD	34	96	2	48
HLD	34	96	5	48
TAP	34	192	6
TAP	34	192	7
TAP	34	264	0
TAP	34	264	5
TAP	34	336	1
TAP	34	336	4
HLD	35	0	2	48
HLD	35	0	5	48
HLD	35	96	2	48
HLD	35	96	5	48
TAP	35	192	0
TAP	35	192	1
TAP	35	264	2
TAP	35	264	7
TAP	35	336	3
TAP	35	336	6
TAP	36	0	2
TAP	36	0	5
TAP	36	48	5
TAP	36	72	4
TAP	36	120	1
TAP	36	144	0
TAP	36	192	2
TAP	36	192	6
TAP	36	240	2
TAP	36	264	3
TAP	36	312	6
TAP	36	336	7
BRK	37	0	1
BRK	37	0	5
TAP	37	48	2
TAP	37	72	3
TAP	37	120	5
TAP	37	144	4
STR	37	192	3
SF_	37	192	3	96	48	7
TAP	37	240	2
TAP	37	240	4
BRK	38	0	1
BRK	38	0	5
TAP	38	48	6
TAP	38	72	7
TAP	38	120	1
TAP	38	144	0
TAP	38	192	2
TAP	38	192	3
TAP	38	264	3
TAP	38	264	4
TAP	38	336	4
TAP	38	336	5
TTP	39	0	0	E	0	M1
BRK	39	0	5
TTP	39	72	1	E	0	M1
BRK	39	72	6
TTP	39	144	2	E	0	M1
BRK	39	144	7
TAP	39	192	3
TAP	39	192	7
TAP	39	240	5
TAP	39	264	4
TAP	39	312	2
TAP	39	336	3
TAP	40	0	0
TAP	40	0	1
TAP	40	72	6
TAP	40	72	7
TAP	40	144	4
TAP	40	144	5
TAP	40	192	3
TAP	40	192	6
TAP	40	240	5
TAP	40	264	4
TAP	40	312	6
TAP	40	336	7
TAP	41	0	0
TAP	41	0	1
TAP	41	48	2
TAP	41	72	3
TAP	41	144	0
TAP	41	144	7
TTP	41	192	0	C	1	M1
TTP	41	192	2	B	0	M1
TTP	41	192	3	B	0	M1
TTP	41	192	4	B	0	M1
TTP	41	192	5	B	0	M1
XTP	41	336	0
XTP	41	336	7
XTP	42	0	0
XTP	42	0	7
BRK	42	96	1
BRK	42	96	3
BRK	42	144	2
BRK	42	144	4
BRK	42	192	3
BRK	42	192	5
BRK	42	264	2
BRK	42	264	6
TAP	42	336	1
STR	43	0	1
SSR	43	0	1	96	96	5
TAP	43	72	5
TAP	43	144	7
STR	43	192	7
SXR	43	192	7	96	96	7
TAP	43	288	2
TAP	43	336	1
STR	44	0	0
SXL	44	0	0	96	96	0
TAP	44	96	4
TAP	44	144	5
TAP	44	192	6
STR	44	288	0
SI_	44	288	0	96	48	4
STR	44	288	6
SI_	44	288	6	96	48	2
TAP	45	0	0
TAP	45	0	6
XTP	45	96	0
XTP	45	96	6
TAP	45	224	2
TAP	45	224	5
TAP	45	256	2
TAP	45	256	5
TAP	45	288	2
TAP	45	288	5
TAP	46	0	3
TAP	46	0	4
TAP	46	48	1
TAP	46	72	0
TAP	46	120	6
TAP	46	144	7
BRK	46	192	4
BRK	46	192	5
BRK	46	264	3
BRK	46	264	4
BRK	46	336	2
BRK	46	336	3
TAP	47	0	1
TAP	47	0	4
TTP	47	48	3	E	0	M1
TTP	47	60	2	B	0	M1
TTP	47	72	2	E	0	M1
TTP	47	120	5	E	0	M1
TTP	47	132	5	B	0	M1
TTP	47	144	6	E	0	M1
TAP	47	192	0
TAP	47	240	1
TAP	47	264	3
TAP	47	312	6
TAP	47	336	4
TAP	48	0	6
TAP	48	0	7
TAP	48	72	0
TAP	48	72	1
TAP	48	144	2
TAP	48	144	3
TAP	48	192	1
TAP	48	192	4
TAP	48	240	2
TAP	48	264	3
TAP	48	312	5
TAP	48	336	4
HLD	49	0	3	96
HLD	49	0	5	96
TAP	49	144	1
TAP	49	144	6
STR	49	192	1
SXR	49	192	1	96	144	3
STR	49	192	6
SXL	49	192	6	96	144	3
STR	50	96	4
SI_	50	96	4	96	48	0
STR	50	96	5
SI_	50	96	5	96	48	7
TAP	50	144	4
TAP	50	144	5
STR	50	288	2
SI_	50	288	2	96	48	0
STR	50	288	3
SI_	50	288	3	96	48	7
TAP	50	336	2
TAP	50	336	3
TAP	51	96	3
TAP	51	96	4
TAP	51	144	2
TAP	51	144	5
TAP	51	192	1
TAP	51	192	6
TAP	51	240	1
STR	51	240	6
SXL	51	240	6	96	144	3
TAP	51	288	0
HLD	51	336	0	192
XTP	52	144	2
XTP	52	192	1
XTP	52	192	3
TAP	52	240	4
TAP	52	288	2
TAP	52	288	5
TAP	52	336	6
TAP	52	360	4
TAP	53	0	5
TAP	53	48	1
TAP	53	72	3
TAP	53	96	2
TAP	53	144	5
TAP	53	168	4
TAP	53	192	7
TAP	53	240	2
TAP	53	264	3
TAP	53	288	0
TAP	53	336	5
TAP	53	360	4
STR	54	0	6
SI_	54	0	6	96	48	0
BRK	54	96	6
TAP	54	144	2
TAP	54	192	3
TAP	54	240	4
TAP	54	288	5
STR	54	336	4
SCL	54	336	4	96	48	1
STR	55	0	4
SCR	55	0	4	96	48	7
XTP	55	144	0
XTP	55	192	0
TAP	55	240	2
TAP	55	240	6
TAP	55	288	2
TAP	55	288	6
STR	56	0	1
SI_	56	0	1	96	48	7
BRK	56	96	1
TAP	56	144	5
TAP	56	192	4
TAP	56	240	3
TAP	56	288	2
STR	56	336	3
SXL	56	336	3	96	48	5
STR	57	0	3
SXR	57	0	3	96	48	1
XTP	57	144	7
XTP	57	192	7
TAP	57	240	1
TAP	57	240	5
TAP	57	288	0
TAP	57	288	6
TAP	58	0	1
TAP	58	0	7
TAP	58	72	2
TAP	58	72	6
TAP	58	144	3
TAP	58	144	5
STR	58	192	3
SI_	58	192	3	96	48	1
STR	58	192	5
SI_	58	192	5	96	48	7
XTP	58	240	4
XTP	58	288	3
XTP	58	288	5
TAP	59	0	0
TAP	59	0	6
TAP	59	72	1
TAP	59	72	5
TAP	59	144	2
TAP	59	144	4
STR	59	192	2
SI_	59	192	2	96	48	0
STR	59	192	4
SI_	59	192	4	96	48	6
XTP	59	240	3
XTP	59	288	2
XTP	59	288	4
TTP	60	0	5	E	0	M1
TTP	60	12	5	B	0	M1
TTP	60	24	6	E	0	M1
TTP	60	72	3	E	0	M1
TTP	60	84	2	B	0	M1
TTP	60	96	2	E	0	M1
XTP	60	144	4
TTP	60	192	5	E	0	M1
TTP	60	204	5	B	0	M1
TTP	60	216	6	B	0	M1
TTP	60	228	7	E	0	M1
TTP	60	264	3	E	0	M1
TTP	60	276	2	B	0	M1
TTP	60	288	1	B	0	M1
TTP	60	300	1	E	0	M1
XTP	60	336	7
STR	61	0	7
SF_	61	0	7	96	48	3
XTP	61	96	7
STR	61	192	0
SF_	61	192	0	96	48	4
XST	61	288	0
SCR	61	288	0	96	144	6
TTP	62	0	0	C	1	M1
XTP	62	144	7
XTP	62	192	7
XTP	62	240	0
TAP	62	288	0
TAP	62	336	1
TAP	62	336	6
TAP	63	0	1
TAP	63	0	6
TAP	63	72	6
TAP	63	96	4
TAP	63	144	3
TAP	63	144	7
TAP	63	192	2
TAP	63	192	6
TAP	63	240	1
TAP	63	288	1
TAP	63	288	3
TAP	63	336	1
TAP	63	336	3
TAP	64	0	2
STR	64	0	4
SCR	64	0	4	96	48	7
TAP	64	96	3
TAP	64	192	1
TAP	64	240	1
TAP	64	288	3
TAP	64	336	3
TAP	65	0	2
TAP	65	0	4
TAP	65	48	5
TAP	65	72	4
STR	65	96	6
SCL	65	96	6	96	48	3
TAP	65	144	6
TAP	65	192	2
TAP	65	288	1
TAP	65	336	2
TAP	65	360	3
TAP	66	0	2
TAP	66	48	5
TAP	66	72	4
TAP	66	96	5
TAP	66	144	1
TAP	66	168	0
TAP	66	192	1
TAP	66	240	6
TAP	66	264	7
TAP	66	288	6
TAP	66	336	5
TAP	67	0	5
TAP	67	32	4
TAP	67	64	6
TAP	67	96	2
TAP	67	128	3
TAP	67	160	1
BRK	67	192	7
TAP	67	288	2
TAP	67	288	5
XTP	67	336	7
TAP	67	360	6
XTP	68	0	0
TAP	68	24	1
XTP	68	48	7
TAP	68	72	6
XTP	68	96	0
TAP	68	120	1
XTP	68	144	7
TAP	68	168	6
XTP	68	192	1
TAP	68	216	2
XTP	68	240	6
TAP	68	264	5
XTP	68	288	1
TAP	68	312	2
XTP	68	336	6
TAP	68	360	5
XTP	69	0	0
XTP	69	48	2
TAP	69	72	3
STR	69	96	4
SSL	69	96	4	96	144	0
TAP	69	144	4
STR	70	0	4
SUR	70	0	4	96	144	5
STR	71	0	7
SI_	71	0	7	96	96	4
STR	71	192	3
SXL	71	192	3	96	144	1
STR	72	96	4
SSL	72	96	4	96	144	0
STR	73	0	4
SI_	73	0	4	96	96	7
SUR	73	0	4	96	96	3
TAP	73	288	2
TAP	73	288	5
TAP	74	0	3
TAP	74	0	4
TAP	74	72	4
TAP	74	96	3
TAP	74	144	4
TAP	74	192	3
TAP	74	192	4
TAP	74	264	4
TAP	74	288	3
TAP	74	336	4
TAP	75	0	3
TAP	75	0	4
TAP	75	72	4
TAP	75	96	3
TAP	75	144	4
TAP	75	192	3
TAP	75	192	4
TAP	75	264	4
TAP	75	288	3
TAP	75	336	4
TAP	76	0	3
TAP	76	0	5
TAP	76	48	5
TAP	76	96	3
TAP	76	144	3
TAP	76	192	2
TAP	76	216	2
TAP	76	240	4
TAP	76	264	4
TAP	76	288	3
TAP	76	312	3
TAP	76	336	5
TAP	77	0	3
TAP	77	0	4
TAP	77	96	0
TAP	77	96	7
XTP	77	192	2
XTP	77	192	5
XTP	77	224	2
XTP	77	224	5
XTP	77	256	2
XTP	77	256	5
XTP	77	288	3
XTP	77	288	4
XTP	77	320	2
XTP	77	320	5
XTP	77	352	1
XTP	77	352	6
STR	78	0	1
SI_	78	0	1	96	48	4
STR	78	0	6
SI_	78	0	6	96	48	3
BRK	78	96	1
BRK	78	96	6
STR	78	192	0
SCL	78	192	0	96	48	6
XTP	78	192	4
TAP	78	264	4
STR	78	288	0
SCR	78	288	0	96	48	2
TAP	78	336	4
STR	79	0	0
SI_	79	0	0	96	48	6
XTP	79	0	5
TAP	79	72	5
STR	79	96	0
SI_	79	96	0	96	48	2
TAP	79	144	5
STR	79	192	0
SCL	79	192	0	96	48	6
XTP	79	192	4
TAP	79	264	4
STR	79	288	0
SCR	79	288	0	96	48	2
TAP	79	336	4
STR	80	0	0
SI_	80	0	0	96	48	6
XTP	80	0	5
TAP	80	72	5
STR	80	96	0
SI_	80	96	0	96	48	2
TAP	80	144	5
STR	80	192	0
SCL	80	192	0	96	48	6
XTP	80	192	4
TAP	80	264	4
TAP	80	288	0
TAP	80	336	4
TAP	81	0	0
TAP	81	0	5
STR	81	96	2
SXL	81	96	2	96	144	0
STR	81	96	4
SXR	81	96	4	96	144	6
TAP	81	144	2
TAP	81	144	4
XTP	82	0	1
XTP	82	0	5
STR	82	96	2
SCL	82	96	2	96	48	7
STR	82	96	3
SV_	82	96	3	96	48	6
TAP	82	144	1
TAP	82	144	4
STR	82	288	4
SV_	82	288	4	96	48	1
STR	82	288	5
SCR	82	288	5	96	48	0
TAP	82	336	3
TAP	82	336	6
TAP	83	96	3
TAP	83	96	4
TAP	83	144	2
TAP	83	144	5
TAP	83	192	1
TAP	83	192	6
STR	83	240	1
SXL	83	240	1	96	144	0
TAP	83	240	6
TAP	83	288	7
HLD	83	336	7	192
XTP	84	144	1
XTP	84	192	2
XTP	84	192	6
TAP	84	240	3
TAP	84	288	2
TAP	84	288	5
TAP	84	336	6
TAP	84	360	4
TAP	85	0	5
TAP	85	48	1
TAP	85	72	3
TAP	85	96	2
TAP	85	144	5
TAP	85	168	4
TAP	85	192	7
TAP	85	240	2
TAP	85	264	3
TAP	85	288	0
TAP	85	336	4
TAP	85	336	6
STR	86	0	4
SI_	86	0	4	96	48	0
STR	86	0	6
SCL	86	0	6	96	48	3
XTP	86	96	4
XTP	86	96	6
TAP	86	240	0
BRK	86	288	1
BRK	86	288	7
STR	87	0	1
SCR	87	0	1	96	48	4
STR	87	0	3
SI_	87	0	3	96	48	7
XTP	87	96	1
XTP	87	96	3
TAP	87	240	7
BRK	87	288	0
BRK	87	288	6
STR	88	0	4
SI_	88	0	4	96	48	0
STR	88	0	6
SCL	88	0	6	96	48	3
XTP	88	96	4
XTP	88	96	6
TAP	88	240	0
BRK	88	288	1
BRK	88	288	7
TAP	88	336	6
TAP	89	0	3
TAP	89	0	6
TAP	89	72	2
TAP	89	72	5
TAP	89	144	1
TAP	89	144	4
TAP	89	192	1
TAP	89	192	4
XTP	89	240	2
XTP	89	256	3
XTP	89	272	4
XST	89	288	5
SCL	89	288	5	96	144	7
TTP	90	0	0	C	1	M1
XTP	90	288	3
XTP	90	288	5
TAP	91	0	2
TAP	91	0	3
TAP	91	72	1
TAP	91	96	0
TAP	91	144	6
TAP	91	192	4
TAP	91	192	5
TAP	91	264	6
TAP	91	288	7
TAP	91	336	1
TAP	92	0	2
TAP	92	0	3
TAP	92	72	1
TAP	92	96	0
TAP	92	144	6
TAP	92	192	4
TAP	92	192	5
TAP	92	264	6
TAP	92	288	7
TAP	92	336	1
TAP	93	0	2
STR	93	0	4
SCR	93	0	4	96	48	7
STR	93	96	0
SI_	93	96	0	96	48	4
TAP	93	96	4
TAP	93	192	0
TAP	93	192	7
STR	93	288	3
SI_	93	288	3	96	48	0
STR	93	288	5
SI_	93	288	5	96	48	2
STR	94	0	3
SI_	94	0	3	96	48	7
TAP	94	0	5
XTP	94	96	3
XTP	94	192	1
XTP	94	192	5
TAP	94	240	0
TAP	94	288	0
TAP	94	336	7
TAP	95	0	7
TAP	95	48	1
TAP	95	72	3
TAP	95	120	6
TAP	95	144	4
TAP	95	192	3
HLD	95	192	5	96
TAP	95	288	4
TTP	96	0	0	C	1	M1
XTP	96	0	3
XTP	96	12	2
XTP	96	24	1
XTP	96	36	0
XTP	96	48	7
XTP	96	60	6
XTP	96	72	5
XTP	96	84	4
XTP	96	96	3
XTP	96	108	2
XTP	96	120	1
XTP	96	132	0
XTP	96	144	7
XTP	96	156	6
XTP	96	168	5
XTP	96	180	4
XTP	96	192	3
XTP	96	204	2
XTP	96	216	1
XTP	96	228	0
XTP	96	240	7
XTP	96	252	6
XTP	96	264	5
XTP	96	276	4
XTP	96	288	3
XTP	96	300	2
XTP	96	312	1
XTP	96	324	0
XTP	96	336	7
XTP	96	348	6
XTP	96	360	5
XTP	96	372	4
XTP	97	0	3
STR	97	96	3
SI_	97	96	3	96	48	0
STR	97	96	4
SI_	97	96	4	96	48	7
STR	97	288	1
SI_	97	288	1	96	48	6
STR	97	288	5
SI_	97	288	5	96	48	2
TAP	98	0	1
TAP	98	0	5
TAP	98	96	0
TAP	98	96	4
XTP	98	192	2
XTP	98	192	6
XTP	98	264	2
XTP	98	264	6
XTP	98	336	1
XTP	98	336	5
TAP	99	0	1
TAP	99	0	5
TAP	99	48	2
TAP	99	72	3
TAP	99	120	5
TAP	99	144	4
HLD	99	192	7	96
XTP	99	240	4
XTP	99	256	3
XTP	99	272	2
XTP	99	288	1

T_REC_TAP	539
T_REC_BRK	39
T_REC_XTP	144
T_REC_HLD	24
T_REC_XHO	0
T_REC_STR	98
T_REC_BST	1
T_REC_XST	3
T_REC_TTP	39
T_REC_THO	0
T_REC_SLD	105
T_REC_ALL	992
T_NUM_TAP	823
T_NUM_BRK	40
T_NUM_HLD	24
T_NUM_SLD	105
T_NUM_ALL	992
T_JUDGE_TAP	863
T_JUDGE_HLD	60
T_JUDGE_SLD	105
T_JUDGE_ALL	1028
TTM_EACHPAIRS	227
TTM_SCR_TAP	411500
TTM_SCR_BRK	104000
TTM_SCR_HLD	24000
TTM_SCR_SLD	157500
TTM_SCR_ALL	697000
TTM_SCR_S	672250
TTM_SCR_SS	693000
TTM_RAT_ACV	10057

