VERSION	0.00.00	1.03.00
FES_MODE	0
BPM_DEF	155.000	155.000	155.000	155.000
MET_DEF	4	4
RESOLUTION	384
CLK_DEF	384
COMPATIBLE_CODE	MA2

BPM	0	0	155.000
MET	0	0	4	4

XTP	2	0	1
XTP	2	0	7
XTP	2	96	0
XTP	2	96	6
TAP	2	192	1
TAP	2	192	5
TAP	2	288	1
TAP	2	288	5
XTP	3	0	0
XTP	3	0	6
XTP	3	96	1
XTP	3	96	7
TAP	3	192	2
TAP	3	192	6
TAP	3	288	2
TAP	3	288	6
XTP	4	0	1
XTP	4	0	7
XTP	4	96	0
XTP	4	96	6
TAP	4	192	1
TAP	4	192	5
BRK	4	288	1
BRK	4	288	5
XHO	5	0	2	72
XHO	5	0	4	72
XTP	5	144	3
XTP	5	144	5
XHO	5	192	3	72
XHO	5	192	5	72
XTP	5	336	1
XTP	5	336	6
BST	6	0	1
SLR	6	0	1	96	288	0
BST	6	0	6
SLL	6	0	6	96	288	7
TAP	7	192	0
TAP	7	192	7
TAP	7	288	1
TAP	7	288	6
TAP	8	0	2
TAP	8	96	1
TAP	8	96	3
TAP	8	192	5
TAP	8	288	4
TAP	8	288	6
TAP	9	0	1
TAP	9	96	0
TAP	9	96	2
TAP	9	192	7
TAP	9	288	0
TAP	9	288	6
XTP	10	0	1
XTP	10	0	3
XTP	10	96	3
XTP	10	96	4
XTP	10	192	4
XTP	10	192	6
TAP	10	288	7
TAP	10	336	7
TAP	11	0	0
XTP	11	72	1
XTP	11	72	6
XTP	11	144	2
XTP	11	144	5
XTP	11	192	2
XTP	11	192	5
XTP	11	288	3
XTP	11	288	4
TTP	12	0	0	C	1	M1
TTP	12	0	1	B	0	M1
TTP	12	0	5	B	0	M1
XTP	12	192	0
XTP	12	192	7
TAP	12	288	1
TAP	12	288	6
TAP	13	0	2
TAP	13	0	5
HLD	13	96	2	128
HLD	13	96	5	128
XTP	13	288	3
XTP	13	288	4
HLD	14	0	3	480
TAP	14	96	4
TAP	14	192	5
TAP	14	288	4
TAP	15	0	6
TAP	15	96	4
TAP	15	192	2
TAP	15	192	3
TAP	15	288	2
TAP	15	288	3
HLD	16	0	4	288
TAP	16	96	2
TAP	16	192	3
TAP	16	288	1
TAP	17	0	2
TAP	17	0	3
TAP	17	96	1
TAP	17	96	4
TAP	17	192	4
TAP	17	192	5
TAP	17	288	3
TAP	17	288	6
TTP	18	0	7	E	0	M1
TTP	18	96	4	B	0	M1
TTP	18	192	1	E	0	M1
TTP	18	288	3	B	0	M1
TTP	19	0	7	E	0	M1
TTP	19	96	2	B	0	M1
TTP	19	96	4	B	0	M1
TTP	19	192	1	E	0	M1
TTP	19	288	3	B	0	M1
TTP	19	288	5	B	0	M1
STR	20	0	7
SI_	20	0	7	96	96	3
STR	20	192	0
SI_	20	192	0	96	96	4
XTP	21	0	7
HLD	21	96	0	96
HLD	21	96	6	96
XTP	21	240	1
XTP	21	240	5
XTP	21	288	1
XTP	21	288	5
HLD	22	0	2	576
TAP	22	96	3
TAP	22	192	4
TAP	22	288	3
TAP	23	0	5
TAP	23	96	3
TAP	23	192	4
TAP	23	288	1
TAP	23	288	3
HLD	24	0	5	576
TAP	24	96	4
TAP	24	192	2
TAP	24	288	3
TAP	25	0	2
TAP	25	96	4
TAP	25	192	6
TAP	25	288	6
TAP	25	288	7
STR	26	0	5
SCL	26	0	5	96	96	2
STR	26	192	1
SUR	26	192	1	96	96	6
HLD	27	0	7	192
TAP	27	192	0
TAP	27	240	0
TAP	27	288	0
TAP	28	0	1
TAP	28	0	7
TAP	28	96	0
TAP	28	96	6
TAP	28	192	1
TAP	28	192	5
STR	28	288	2
SI_	28	288	2	96	96	7
STR	28	288	6
SI_	28	288	6	96	96	3
XTP	29	192	0
XTP	29	192	4
XTP	30	0	4
XTP	30	0	5
XTP	30	72	4
XTP	30	72	5
XTP	30	144	2
XTP	30	144	6
TAP	30	240	7
TAP	30	288	7
HLD	31	0	6	72
HLD	31	72	5	72
TAP	31	144	4
TAP	31	240	3
TAP	31	288	3
TAP	31	288	4
XTP	32	0	2
XTP	32	0	3
XTP	32	72	2
XTP	32	72	3
XTP	32	144	1
XTP	32	144	5
TAP	32	240	0
TAP	32	288	0
HLD	33	0	1	72
HLD	33	72	2	72
TAP	33	144	3
TAP	33	240	4
TAP	33	240	5
TAP	33	288	4
TAP	33	288	5
STR	34	0	6
SI_	34	0	6	96	96	1
STR	34	192	2
SI_	34	192	2	96	96	5
STR	35	0	6
SCR	35	0	6	96	96	1
TAP	35	192	2
TAP	35	288	2
TAP	35	288	3
XHO	36	0	4	72
XHO	36	0	5	72
XTP	36	144	3
XTP	36	144	4
XHO	36	192	3	72
XHO	36	192	4	72
XTP	36	336	2
XTP	36	336	3
XTP	37	0	2
XST	37	0	3
SI_	37	0	3	96	96	7
BRK	37	288	0
BRK	37	288	6
TAP	38	0	1
TAP	38	0	7
TAP	38	96	0
TAP	38	96	6
TAP	38	192	2
TAP	38	192	7
TAP	38	288	0
TAP	38	288	5
TAP	39	0	1
TAP	39	0	7
TAP	39	96	0
TAP	39	96	6
TAP	39	192	2
TAP	39	192	7
TAP	39	288	1
TAP	39	288	5
TAP	40	0	2
TAP	40	0	6
TAP	40	96	0
TAP	40	96	5
TAP	40	192	1
TAP	40	192	7
TAP	40	288	0
TAP	40	288	6
TAP	41	0	2
TAP	41	0	7
TAP	41	96	3
TAP	41	96	4
BRK	41	192	1
BRK	41	192	6
TAP	41	336	5
TAP	42	0	4
TAP	42	0	5
XTP	42	96	2
XTP	42	96	6
XTP	42	192	1
XTP	42	192	5
XTP	42	288	2
XTP	42	288	7
BRK	43	0	0
BRK	43	0	5
BRK	43	96	2
BRK	43	96	7
BRK	43	192	0
BRK	43	192	5
STR	43	288	6
SI_	43	288	6	96	48	3
TAP	43	288	7
TAP	44	96	0
STR	44	96	1
SI_	44	96	1	96	48	4
STR	44	288	5
SI_	44	288	5	96	48	2
STR	45	0	1
SI_	45	0	1	96	48	6
TAP	45	96	4
BRK	45	192	0
BRK	45	192	5
TAP	45	336	1
TAP	46	0	1
TAP	46	0	7
TAP	46	96	0
TAP	46	96	6
TAP	46	192	2
TAP	46	192	7
TAP	46	288	0
TAP	46	288	6
TAP	47	0	1
TAP	47	0	7
TAP	47	96	0
TAP	47	96	5
TAP	47	192	2
TAP	47	192	6
TAP	47	288	0
TAP	47	288	5
TAP	48	0	1
TAP	48	0	7
TAP	48	96	0
TAP	48	96	6
TAP	48	192	2
TAP	48	192	7
TAP	48	288	3
TAP	48	288	5
TTP	49	0	0	C	1	M1
TTP	49	0	2	B	0	M1
TTP	49	0	6	B	0	M1
XTP	49	144	0
XTP	49	192	0
XTP	49	264	1
XTP	49	264	7
XTP	49	336	2
XTP	49	336	6
XTP	50	0	2
XTP	50	0	6
STR	50	96	1
SI_	50	96	1	96	48	4
STR	50	96	7
SI_	50	96	7	96	48	4
STR	50	288	0
SI_	50	288	0	96	48	3
STR	50	288	6
SI_	50	288	6	96	48	3
XTP	51	96	2
XTP	51	96	4
XTP	51	192	3
XTP	51	192	5
TAP	51	288	1
TAP	51	288	7
HLD	51	336	1	96
TAP	51	336	7
HLD	52	48	2	96
HLD	52	144	3	96
TAP	52	240	4
TAP	52	288	3
TAP	52	288	4
XTP	53	0	2
XTP	53	0	4
XTP	53	96	3
XTP	53	96	5
XTP	53	192	1
XTP	53	192	4
XTP	53	288	3
XTP	53	288	6
XTP	54	0	2
XTP	54	0	5
BST	54	96	7
SI_	54	96	7	96	48	5
STR	54	192	1
SI_	54	192	1	96	48	4
STR	54	288	7
SCL	54	288	7	96	120	2
XTP	55	192	1
XTP	55	192	4
XTP	56	0	2
XTP	56	0	5
BST	56	96	0
SI_	56	96	0	96	48	2
STR	56	192	6
SI_	56	192	6	96	48	3
STR	56	288	0
SCR	56	288	0	96	120	5
XTP	57	192	3
XTP	57	192	6
HLD	58	0	2	72
HLD	58	72	1	72
TAP	58	144	0
XTP	58	192	7
XTP	58	240	7
BRK	58	288	0
BRK	58	288	6
HLD	59	0	5	72
HLD	59	72	6	72
TAP	59	144	7
XTP	59	192	0
XTP	59	240	0
BRK	59	288	1
BRK	59	288	7
HLD	60	0	6	72
TAP	60	72	7
TAP	60	144	0
TAP	60	144	5
HLD	60	192	1	72
TAP	60	264	0
TAP	60	336	2
TAP	60	336	7
BRK	61	0	2
BRK	61	0	7
BRK	61	96	0
BRK	61	96	5
BRK	61	192	3
BRK	61	192	6
BRK	61	288	1
BRK	61	288	4
THO	62	0	0	192	C	1	M1
TTP	62	0	1	B	0	M1
TTP	62	0	5	B	0	M1
TAP	63	192	0
TAP	63	192	7
TAP	63	288	1
TAP	63	288	6
TAP	64	0	2
TAP	64	96	0
TAP	64	192	7
TAP	64	288	5
TAP	65	0	3
TAP	65	96	1
TAP	65	96	5
TAP	65	192	4
TAP	65	288	2
TAP	65	288	6
TAP	66	0	5
TAP	66	48	5
TAP	66	96	4
TAP	66	144	4
TAP	66	192	6
TAP	66	288	3
STR	66	288	7
SSR	66	288	7	96	192	3
XTP	67	288	2
XTP	67	288	4
TAP	68	0	1
TAP	68	48	1
TAP	68	96	3
TAP	68	144	3
TAP	68	192	2
TAP	68	240	2
TAP	68	288	5
TAP	68	336	5
TAP	69	0	4
TAP	69	96	3
TAP	69	96	6
TAP	69	192	4
TAP	69	192	5
TAP	69	288	3
STR	69	288	4
SI_	69	288	4	96	192	7
STR	70	288	0
SI_	70	288	0	96	192	3
STR	71	288	4
SI_	71	288	4	96	192	7
STR	72	288	0
SI_	72	288	0	96	192	3
TTP	74	0	7	E	0	M1
TTP	74	96	6	B	0	M1
TTP	74	192	5	B	0	M1
TTP	74	288	5	E	0	M1
TTP	75	0	2	E	0	M1
TTP	75	0	3	B	0	M1
TTP	75	96	4	B	0	M1
TTP	75	96	6	E	0	M1
TTP	75	192	0	C	0	M1
TTP	75	192	1	B	0	M1
TTP	75	192	5	B	0	M1
HLD	76	0	0	96
HLD	76	0	6	96
HLD	76	192	1	96
HLD	76	192	7	96
HLD	77	0	2	96
HLD	77	96	4	96
XTP	77	192	3
STR	77	288	3
SI_	77	288	3	96	48	7
STR	77	288	4
SI_	77	288	4	96	48	0
BRK	78	96	1
BRK	78	96	6
TAP	78	192	0
TAP	78	192	5
TAP	78	288	2
TAP	78	288	7
TAP	79	0	0
TAP	79	0	6
TAP	79	96	1
TAP	79	96	7
TAP	79	192	0
TAP	79	192	5
TAP	79	288	2
TAP	79	288	7
TAP	80	0	1
TAP	80	0	5
TAP	80	96	2
TAP	80	96	7
TAP	80	192	0
TAP	80	192	6
TAP	80	288	3
TAP	80	288	4
TTP	81	0	0	C	1	M1
TTP	81	0	2	B	0	M1
TTP	81	0	5	B	0	M1
TAP	81	192	0
TAP	81	192	7
STR	81	288	4
SI_	81	288	4	96	48	0
STR	81	288	5
SI_	81	288	5	96	48	0
STR	82	96	2
SI_	82	96	2	96	48	7
STR	82	96	3
SI_	82	96	3	96	48	7
STR	82	288	4
SI_	82	288	4	96	48	0
STR	82	288	5
SI_	82	288	5	96	48	0
TAP	83	96	1
TAP	83	96	7
TAP	83	192	2
TAP	83	192	3
TAP	83	288	3
TAP	83	288	4
STR	83	336	3
SF_	83	336	3	96	144	7
TAP	83	336	4
XTP	84	336	1
XTP	84	336	5
BRK	85	0	1
BRK	85	0	5
BRK	85	96	3
BRK	85	96	7
BRK	85	192	0
BRK	85	192	4
BRK	85	288	2
BRK	85	288	6
XTP	86	0	3
XTP	86	0	5
BRK	86	96	6
BRK	86	96	7
TAP	86	192	5
TAP	86	240	5
XTP	86	288	4
XTP	86	288	6
XTP	87	0	2
XTP	87	0	4
BRK	87	96	0
BRK	87	96	1
TAP	87	192	2
TAP	87	240	2
XTP	87	288	1
XTP	87	288	3
BRK	88	0	3
BRK	88	0	5
BRK	88	96	1
BRK	88	96	7
TAP	88	192	0
TAP	88	240	0
BRK	88	288	1
BRK	88	288	7
HLD	89	0	1	72
HLD	89	72	2	72
TAP	89	144	3
HLD	89	192	4	72
HLD	89	264	5	72
TAP	89	336	6
BST	90	0	6
SXR	90	0	6	96	480	3
BST	90	0	7
SXL	90	0	7	96	480	2
TTP	92	0	5	E	0	M1
TTP	92	0	6	E	0	M1
TTP	92	96	0	E	0	M1
TTP	92	96	7	E	0	M1
TTP	92	192	1	E	0	M1
TTP	92	192	2	E	0	M1
TTP	92	288	3	E	0	M1
TTP	92	288	4	E	0	M1
TTP	93	0	5	E	0	M1
TTP	93	0	6	E	0	M1
TTP	93	96	0	E	0	M1
TTP	93	96	7	E	0	M1
TTP	93	192	1	E	0	M1
TTP	93	192	2	E	0	M1
TTP	93	288	0	C	0	M1
STR	94	0	0
SI_	94	0	0	96	48	4
STR	94	0	6
SI_	94	0	6	96	48	3
XTP	94	192	2
XTP	94	192	5
TAP	94	288	4
TAP	94	288	6
TAP	94	336	4
TAP	94	336	6
XTP	95	0	4
XTP	95	0	6
XTP	95	72	3
XTP	95	72	5
XTP	95	144	2
XTP	95	144	4
XTP	95	192	2
XTP	95	192	4
STR	95	288	1
SCR	95	288	1	96	192	6
TAP	95	288	6
TTP	96	0	0	C	1	M1
TAP	97	0	4
TAP	97	0	6
TAP	97	96	3
TAP	97	96	4
TAP	97	192	1
TAP	97	192	3
TAP	97	288	0
TAP	97	288	7
STR	98	0	1
SI_	98	0	1	96	48	4
STR	98	96	5
SI_	98	96	5	96	48	0
TAP	98	192	2
TAP	98	336	1
TAP	98	336	7
XTP	99	0	1
XTP	99	0	7
XTP	99	72	2
XTP	99	72	3
XTP	99	144	4
XTP	99	144	5
BST	99	192	4
SI_	99	192	4	96	48	0
BST	99	192	5
SI_	99	192	5	96	48	0

T_REC_TAP	254
T_REC_BRK	46
T_REC_XTP	125
T_REC_HLD	32
T_REC_XHO	8
T_REC_STR	40
T_REC_BST	8
T_REC_XST	1
T_REC_TTP	48
T_REC_THO	1
T_REC_SLD	49
T_REC_ALL	612
T_NUM_TAP	468
T_NUM_BRK	54
T_NUM_HLD	41
T_NUM_SLD	49
T_NUM_ALL	612
T_JUDGE_TAP	522
T_JUDGE_HLD	120
T_JUDGE_SLD	49
T_JUDGE_ALL	691
TTM_EACHPAIRS	194
TTM_SCR_TAP	234000
TTM_SCR_BRK	140400
TTM_SCR_HLD	41000
TTM_SCR_SLD	73500
TTM_SCR_ALL	488900
TTM_SCR_S	469000
TTM_SCR_SS	483500
TTM_RAT_ACV	10111

