VERSION	0.00.00	1.03.00
FES_MODE	0
BPM_DEF	155.000	155.000	155.000	155.000
MET_DEF	4	4
RESOLUTION	384
CLK_DEF	384
COMPATIBLE_CODE	MA2

BPM	0	0	155.000
MET	0	0	4	4

TAP	2	0	4
TAP	2	0	5
HLD	2	96	4	96
HLD	2	96	5	96
TAP	3	0	2
TAP	3	0	3
HLD	3	96	2	96
HLD	3	96	3	96
TAP	4	0	0
TAP	4	0	1
HLD	4	96	0	96
HLD	4	96	1	96
TAP	5	0	6
TAP	5	96	6
TAP	5	192	7
TAP	5	288	7
BST	6	0	0
SXL	6	0	0	96	480	3
BST	6	0	7
SXR	6	0	7	96	480	4
TAP	8	0	2
TAP	8	96	2
TAP	8	192	3
TAP	8	288	3
TAP	9	0	4
TAP	9	96	4
TAP	9	192	3
TAP	9	192	5
TAP	10	0	6
TAP	10	96	6
BRK	10	192	6
BRK	10	192	7
TAP	11	0	1
TAP	11	96	1
BRK	11	192	0
BRK	11	192	1
BST	12	0	0
SI_	12	0	0	96	144	3
BST	12	0	7
SI_	12	0	7	96	144	4
XTP	13	0	3
XTP	13	0	4
XTP	13	96	3
XTP	13	96	4
XTP	13	192	2
XTP	13	192	5
HLD	14	0	6	192
TAP	14	192	7
TAP	14	288	0
HLD	15	0	1	192
TAP	15	192	0
TAP	15	288	7
HLD	16	0	6	192
TAP	16	192	7
TAP	16	288	7
TAP	17	0	0
TAP	17	96	0
TAP	17	192	1
TAP	17	192	7
HLD	18	0	2	192
TAP	18	192	3
TAP	18	288	4
HLD	19	0	5	192
TAP	19	192	4
TAP	19	288	3
TAP	20	0	2
TAP	20	96	2
TAP	20	192	3
TAP	20	288	3
TAP	21	0	3
TAP	21	0	4
TAP	21	96	3
TAP	21	96	4
XTP	21	192	2
XTP	21	192	5
TAP	22	0	6
TAP	22	96	6
TAP	22	192	6
TAP	22	192	7
TAP	23	0	1
TAP	23	96	1
TAP	23	192	0
TAP	23	192	1
TAP	24	0	6
TAP	24	96	6
TAP	24	192	7
TAP	24	288	7
TAP	25	0	0
TAP	25	96	0
TAP	25	192	1
TAP	25	192	7
STR	26	0	2
SCL	26	0	2	96	144	7
STR	27	0	6
SCL	27	0	6	96	144	3
TAP	28	0	2
TAP	28	96	2
TAP	28	192	3
TAP	28	288	3
TAP	29	0	3
TAP	29	0	4
TAP	29	96	3
TAP	29	96	4
XTP	29	192	2
XTP	29	192	5
TTP	30	0	6	B	0	L1
TTP	30	0	7	E	0	L1
TTP	30	192	4	B	0	L1
TTP	30	192	5	E	0	L1
TTP	31	0	3	E	0	L1
TTP	31	96	2	B	0	L1
TTP	31	192	1	B	0	L1
TTP	32	0	6	B	0	L1
TTP	32	0	7	E	0	L1
TTP	32	192	4	B	0	L1
TTP	32	192	5	E	0	L1
TTP	33	0	1	B	0	L1
TTP	33	96	2	B	0	L1
TTP	33	192	3	E	0	L1
TTP	34	0	5	E	0	L1
TTP	34	96	5	B	0	L1
TTP	34	192	6	E	0	L1
TTP	35	0	3	E	0	L1
TTP	35	96	2	B	0	L1
TTP	35	192	2	E	0	L1
TTP	36	0	5	B	0	L1
TTP	36	96	4	B	0	L1
TTP	36	192	3	B	0	L1
TTP	36	288	2	B	0	L1
TTP	37	0	0	C	1	L1
TTP	37	0	1	B	0	L1
TTP	37	0	6	B	0	L1
TAP	38	0	1
TAP	38	96	1
TAP	38	192	0
TAP	38	192	1
TAP	38	288	0
TAP	38	288	1
TAP	39	0	6
TAP	39	96	6
TAP	39	192	6
TAP	39	192	7
TAP	39	288	6
TAP	39	288	7
TAP	40	0	5
TAP	40	96	5
TAP	40	192	4
TAP	40	288	4
TAP	41	0	3
TAP	41	96	3
BRK	41	192	2
BRK	41	192	4
STR	42	0	1
SCR	42	0	1	96	144	4
TAP	43	0	5
TAP	43	96	5
TAP	43	192	4
TAP	43	192	5
HLD	44	0	6	96
HLD	44	0	7	96
HLD	44	192	0	96
HLD	44	192	1	96
TAP	45	0	0
TAP	45	0	7
TAP	45	96	0
TAP	45	96	7
TAP	45	192	1
TAP	45	192	6
TAP	46	0	5
TAP	46	96	5
TAP	46	192	4
TAP	46	192	5
TAP	46	288	4
TAP	46	288	5
TAP	47	0	2
TAP	47	96	2
TAP	47	192	2
TAP	47	192	3
TAP	47	288	2
TAP	47	288	3
TAP	48	0	1
TAP	48	96	1
TAP	48	192	0
TAP	48	288	0
BST	49	0	0
SCR	49	0	0	96	144	3
BST	49	0	7
SCL	49	0	7	96	144	4
HLD	50	0	5	192
HLD	50	192	4	192
HLD	51	0	3	192
STR	51	192	2
SCL	51	192	2	96	288	5
TAP	53	0	5
TAP	53	96	4
TAP	53	192	3
TAP	53	288	2
BST	54	0	3
SI_	54	0	3	96	144	7
BRK	54	0	4
TAP	55	0	6
TAP	55	96	6
TAP	55	192	6
TAP	55	192	7
STR	56	0	6
SI_	56	0	6	96	144	3
TAP	57	0	2
TAP	57	96	2
TAP	57	192	2
TAP	57	192	3
TAP	58	0	1
TAP	58	96	0
HLD	58	192	0	96
HLD	58	192	1	96
TAP	59	0	6
TAP	59	96	7
HLD	59	192	6	96
HLD	59	192	7	96
TAP	60	0	5
TAP	60	96	4
TAP	60	192	3
TAP	60	288	2
TAP	61	0	1
TAP	61	96	0
TAP	61	192	7
TAP	61	288	6
STR	62	0	5
SCR	62	0	5	96	480	4
STR	64	0	3
SCL	64	0	3	96	144	0
TAP	65	0	7
TAP	65	96	7
TAP	65	192	0
TAP	65	192	7
TTP	66	0	6	B	0	L1
TTP	66	96	5	B	0	L1
TTP	66	192	5	E	0	L1
TTP	67	0	1	B	0	L1
TTP	67	96	2	B	0	L1
TTP	67	192	3	E	0	L1
TTP	68	0	5	B	0	L1
TTP	68	96	4	B	0	L1
TTP	68	192	3	B	0	L1
TTP	68	288	2	B	0	L1
TTP	69	0	0	C	1	L1
XHO	70	0	2	384
HLD	71	0	3	384
HLD	72	0	4	384
TAP	73	0	5
STR	74	0	6
SCL	74	0	6	96	144	3
STR	75	0	2
SCL	75	0	2	96	144	7
TAP	76	0	6
TAP	76	192	0
TAP	76	192	1
TAP	77	0	0
TAP	77	0	7
TAP	77	96	0
TAP	77	96	7
XTP	77	192	1
XTP	77	192	6
TAP	78	0	2
BRK	78	96	2
BRK	78	96	3
TAP	78	192	2
TAP	78	288	2
TAP	78	288	3
TAP	79	0	5
TAP	79	96	4
TAP	79	96	5
TAP	79	192	5
TAP	79	288	4
TAP	79	288	5
TAP	80	0	6
TAP	80	96	6
TAP	80	192	7
TAP	80	288	7
BST	81	0	0
SCR	81	0	0	96	144	3
BST	81	0	7
SCL	81	0	7	96	144	4
HLD	82	0	2	192
HLD	82	192	3	192
HLD	83	0	4	192
STR	83	192	5
SCR	83	192	5	96	288	2
TAP	85	0	2
TAP	85	96	3
TAP	85	192	4
TAP	85	288	5
TAP	86	0	6
TAP	86	0	7
HLD	86	96	6	96
HLD	86	96	7	96
TAP	87	0	0
TAP	87	0	1
HLD	87	96	0	96
HLD	87	96	1	96
TAP	88	0	2
TAP	88	0	3
HLD	88	96	2	96
HLD	88	96	3	96
TAP	89	0	5
TAP	89	96	5
TAP	89	192	4
TAP	89	288	4
BST	90	0	3
SXR	90	0	3	96	480	0
BST	90	0	4
SXL	90	0	4	96	480	7
TAP	92	0	1
TAP	92	96	1
TAP	92	192	2
TAP	92	288	2
TAP	93	0	3
TAP	93	96	3
TAP	93	192	2
TAP	93	192	4
TAP	94	0	5
TAP	94	96	5
BRK	94	192	4
BRK	94	192	5
TAP	95	0	2
TAP	95	96	2
BRK	95	192	2
BRK	95	192	3
BST	96	0	3
SI_	96	0	3	96	144	0
BST	96	0	4
SI_	96	0	4	96	144	7
HLD	97	0	0	96
HLD	97	0	7	96
TAP	97	192	1
TAP	97	192	6
TAP	98	0	5
TAP	98	96	5
TAP	98	192	4
TAP	98	192	5
TAP	99	0	3
TAP	99	0	4
TAP	99	96	3
TAP	99	96	4
TAP	99	192	3
TAP	99	192	4
BRK	99	288	2
BRK	99	288	5

T_REC_TAP	200
T_REC_BRK	15
T_REC_XTP	12
T_REC_HLD	35
T_REC_XHO	1
T_REC_STR	10
T_REC_BST	13
T_REC_XST	0
T_REC_TTP	38
T_REC_THO	0
T_REC_SLD	23
T_REC_ALL	347
T_NUM_TAP	260
T_NUM_BRK	28
T_NUM_HLD	36
T_NUM_SLD	23
T_NUM_ALL	347
T_JUDGE_TAP	288
T_JUDGE_HLD	112
T_JUDGE_SLD	23
T_JUDGE_ALL	423
TTM_EACHPAIRS	73
TTM_SCR_TAP	130000
TTM_SCR_BRK	72800
TTM_SCR_HLD	36000
TTM_SCR_SLD	34500
TTM_SCR_ALL	273300
TTM_SCR_S	262400
TTM_SCR_SS	270500
TTM_RAT_ACV	10103

