VERSION	0.00.00	1.03.00
FES_MODE	0
BPM_DEF	155.000	155.000	155.000	155.000
MET_DEF	4	4
RESOLUTION	384
CLK_DEF	384
COMPATIBLE_CODE	MA2

BPM	0	0	155.000
MET	0	0	4	4

XTP	2	0	0
XTP	3	0	0
XTP	4	0	7
XTP	5	0	7
TAP	6	0	0
TAP	7	0	0
TAP	8	0	1
TAP	9	0	1
XTP	10	0	2
XTP	11	0	2
XTP	12	0	3
BRK	13	0	3
BRK	13	0	4
HLD	14	0	4	384
HLD	16	0	5	384
HLD	18	0	6	384
HLD	20	0	0	384
HLD	20	0	7	384
TAP	22	0	7
TAP	23	0	6
TAP	24	0	5
TAP	25	0	4
TAP	25	0	5
TAP	26	0	3
TAP	27	0	2
TAP	27	0	3
TAP	28	0	4
TAP	29	0	3
TAP	29	0	4
TTP	30	0	3	B	0	L1
TTP	31	0	4	B	0	L1
TTP	32	0	2	B	0	L1
TTP	33	0	5	B	0	L1
TTP	34	0	1	B	0	L1
TTP	34	0	2	B	0	L1
TTP	35	0	5	B	0	L1
TTP	35	0	6	B	0	L1
THO	36	0	0	384	C	1	L1
XTP	38	0	0
TAP	38	96	0
TAP	38	192	0
TAP	39	0	1
TAP	39	192	1
TAP	40	0	2
TAP	40	96	2
TAP	40	192	2
TAP	41	0	3
TAP	41	192	3
TAP	41	192	4
TAP	42	0	4
TAP	42	96	4
TAP	42	192	4
TAP	43	0	5
TAP	43	192	5
TAP	44	0	6
TAP	44	96	6
TAP	44	192	6
XTP	45	0	0
XTP	45	0	7
TAP	46	0	7
TAP	46	96	7
TAP	46	192	7
TAP	47	0	6
TAP	47	192	6
TAP	48	0	5
TAP	48	96	5
TAP	48	192	5
TAP	49	0	3
TAP	49	0	4
TAP	49	192	3
TAP	49	192	4
TAP	50	0	2
TAP	50	192	1
TAP	51	0	0
STR	51	192	0
SI_	51	192	0	96	192	4
XTP	53	0	5
XTP	53	192	6
BRK	54	0	0
BRK	54	0	7
TAP	54	192	7
TAP	55	0	6
TAP	55	96	6
TAP	55	192	6
TAP	56	0	5
TAP	56	192	5
TAP	57	0	4
TAP	57	96	4
TAP	57	192	3
TAP	57	192	4
TAP	58	0	3
TAP	58	192	3
TAP	59	0	2
TAP	59	192	2
TAP	60	0	1
TAP	60	192	1
TAP	61	0	0
TAP	61	96	0
TAP	61	192	0
TAP	61	192	7
STR	62	0	0
SI_	62	0	0	96	192	3
STR	64	0	7
SI_	64	0	7	96	192	4
STR	66	0	0
SI_	66	0	0	96	192	4
STR	68	0	7
SI_	68	0	7	96	192	3
TTP	70	0	2	B	0	L1
TTP	71	0	3	B	0	L1
TTP	72	0	4	B	0	L1
TTP	73	0	5	B	0	L1
TTP	74	0	2	B	0	L1
TTP	74	0	3	B	0	L1
TTP	75	0	4	B	0	L1
TTP	75	0	5	B	0	L1
THO	76	0	0	384	C	1	L1
TAP	78	0	7
TAP	78	96	7
TAP	78	192	7
TAP	79	0	6
TAP	79	96	6
TAP	79	192	6
TAP	80	0	5
TAP	80	96	5
TAP	80	192	5
TAP	81	0	4
TAP	81	96	4
TAP	81	192	3
TAP	81	192	4
TAP	82	0	2
TAP	82	192	1
TAP	83	0	0
TAP	83	96	0
STR	83	192	0
SI_	83	192	0	96	192	4
XTP	85	0	5
XTP	85	96	5
XTP	85	192	5
XTP	86	0	6
XTP	86	96	6
XTP	86	192	6
XTP	86	192	7
XTP	87	0	1
XTP	87	96	1
XTP	87	192	0
XTP	87	192	1
XTP	88	0	7
XTP	88	96	7
XTP	88	192	0
XTP	88	192	7
XHO	89	0	0	192
XHO	89	0	7	192
BRK	90	0	0
TAP	90	192	0
HLD	91	0	1	192
TAP	92	0	2
TAP	92	192	2
HLD	93	0	3	192
HLD	93	0	4	192
TAP	94	0	5
TAP	94	96	5
TAP	94	192	5
TAP	95	0	6
TAP	95	96	6
TAP	95	192	6
HLD	96	0	6	192
HLD	96	0	7	192
HLD	97	0	0	192
HLD	97	0	1	192
XTP	98	0	0
XTP	98	0	7
XTP	98	96	0
XTP	98	96	7
XTP	98	192	0
XTP	98	192	7
XTP	99	0	1
XTP	99	0	6
XTP	99	96	1
XTP	99	96	6
BRK	99	192	1
BRK	99	192	6

T_REC_TAP	94
T_REC_BRK	7
T_REC_XTP	37
T_REC_HLD	12
T_REC_XHO	2
T_REC_STR	6
T_REC_BST	0
T_REC_XST	0
T_REC_TTP	16
T_REC_THO	2
T_REC_SLD	6
T_REC_ALL	182
T_NUM_TAP	153
T_NUM_BRK	7
T_NUM_HLD	16
T_NUM_SLD	6
T_NUM_ALL	182
T_JUDGE_TAP	160
T_JUDGE_HLD	92
T_JUDGE_SLD	6
T_JUDGE_ALL	258
TTM_EACHPAIRS	26
TTM_SCR_TAP	76500
TTM_SCR_BRK	18200
TTM_SCR_HLD	16000
TTM_SCR_SLD	9000
TTM_SCR_ALL	119700
TTM_SCR_S	115450
TTM_SCR_SS	119000
TTM_RAT_ACV	10058

