VERSION	0.00.00	1.03.00
FES_MODE	0
BPM_DEF	194.000	194.000	194.000	194.000
MET_DEF	4	4
RESOLUTION	384
CLK_DEF	384
COMPATIBLE_CODE	MA2

BPM	0	0	194.000
MET	0	0	4	4

HLD	1	0	4	192
XTP	1	192	3
XTP	1	264	3
XTP	1	264	4
XTP	1	336	3
XTP	1	336	4
HLD	2	0	2	96
HLD	2	0	5	96
HLD	2	144	1	96
HLD	2	144	4	96
STR	2	288	0
SCR	2	288	0	96	192	6
TAP	2	288	3
XTP	3	288	0
XTP	3	288	7
HLD	4	0	2	96
HLD	4	0	5	96
HLD	4	144	3	96
HLD	4	144	6	96
STR	4	288	4
SCR	4	288	4	96	192	2
TAP	4	288	7
TTP	5	288	6	E	0	M1
TTP	5	292	5	B	0	M1
TTP	5	296	4	B	0	M1
TTP	5	300	3	B	0	M1
TTP	5	304	2	B	0	M1
TTP	5	308	2	E	0	M1
XHO	6	0	7	96
HLD	6	144	0	96
HLD	6	144	6	96
STR	6	288	1
SXL	6	288	1	96	216	7
STR	6	288	5
SXL	6	288	5	96	216	3
XTP	7	288	0
XTP	7	288	4
HLD	8	0	2	96
HLD	8	0	6	96
HLD	8	144	1	96
HLD	8	144	5	96
STR	8	288	0
SXL	8	288	0	96	216	3
STR	8	288	4
SXL	8	288	4	96	216	7
TAP	9	288	1
TAP	9	288	5
TAP	10	0	3
HLD	10	0	4	72
TAP	10	72	3
TAP	10	96	4
TAP	10	144	3
TAP	10	192	4
HLD	10	192	5	72
TAP	10	264	4
TAP	10	288	5
TAP	10	336	4
TAP	11	0	3
HLD	11	0	6	72
TAP	11	72	3
TAP	11	96	6
TAP	11	144	3
TAP	11	192	2
TAP	11	192	5
TAP	11	240	1
TAP	11	288	0
TAP	11	288	4
HLD	12	0	3	72
TAP	12	0	4
TAP	12	72	4
TAP	12	96	3
TAP	12	144	4
HLD	12	192	2	72
TAP	12	192	3
TAP	12	264	3
TAP	12	288	2
TAP	12	336	3
HLD	13	0	1	72
TAP	13	0	4
TAP	13	72	4
TAP	13	96	1
TAP	13	144	4
TAP	13	192	2
TAP	13	192	5
TAP	13	240	6
TAP	13	288	3
TAP	13	288	7
HLD	14	0	1	48
TAP	14	0	5
TAP	14	48	6
TAP	14	96	3
HLD	14	96	7	48
TAP	14	144	2
HLD	14	192	1	48
TAP	14	192	4
TAP	14	240	5
TAP	14	288	2
HLD	14	288	6	48
TAP	14	336	1
TAP	15	0	0
TAP	15	24	7
TAP	15	48	0
TAP	15	72	7
TAP	15	96	0
TAP	15	120	7
TAP	15	144	0
TAP	15	168	7
XTP	15	192	0
XTP	15	208	1
XTP	15	224	2
XTP	15	240	6
XTP	15	256	5
XTP	15	272	4
TAP	15	288	1
TAP	15	304	2
TAP	15	320	3
TAP	15	336	7
TAP	15	352	6
TAP	15	368	5
BST	16	0	0
SCL	16	0	0	96	192	1
BRK	16	0	4
XST	17	0	0
SSL	17	0	0	96	144	4
BRK	17	288	1
BRK	17	288	6
TAP	18	0	3
TAP	18	0	4
TAP	18	48	2
TAP	18	72	3
TAP	18	96	2
TAP	18	144	5
TAP	18	168	4
TAP	18	192	6
HLD	18	240	6	48
TAP	18	288	7
TAP	18	312	6
TAP	19	0	0
HLD	19	0	7	72
HLD	19	72	6	72
HLD	19	144	5	72
HLD	19	216	4	72
TAP	19	288	7
TAP	19	336	7
TAP	20	0	3
TAP	20	48	5
TAP	20	72	4
TAP	20	96	5
TAP	20	144	2
TAP	20	168	3
TAP	20	192	1
HLD	20	240	1	48
TAP	20	288	0
TAP	20	312	1
HLD	21	0	0	72
TAP	21	0	7
HLD	21	72	1	72
HLD	21	144	2	72
HLD	21	216	3	72
TAP	21	288	0
TAP	21	336	0
TAP	22	0	4
TAP	22	48	2
TAP	22	72	3
TAP	22	96	2
TAP	22	144	5
TAP	22	168	4
TAP	22	192	6
HLD	22	240	6	48
TAP	22	288	7
TAP	22	312	6
TAP	23	0	0
HLD	23	0	7	72
HLD	23	72	6	72
HLD	23	144	5	72
HLD	23	216	4	72
TAP	23	288	7
TAP	23	336	7
TAP	24	0	3
TAP	24	48	5
TAP	24	72	4
TAP	24	96	6
TAP	24	144	2
TAP	24	168	3
TAP	24	192	1
TAP	24	240	0
TAP	24	240	7
STR	24	288	1
SI_	24	288	1	96	48	5
TAP	24	288	6
BRK	25	0	3
XTP	25	192	3
XTP	25	192	5
XTP	25	264	2
XTP	25	264	4
XTP	25	336	3
XTP	25	336	5
TAP	26	0	2
TAP	26	0	6
TAP	26	48	5
TAP	26	72	4
TAP	26	96	6
TAP	26	144	2
TAP	26	168	3
TAP	26	192	1
TAP	26	216	3
TAP	26	240	2
TAP	26	288	1
TAP	26	288	4
STR	27	0	0
SI_	27	0	0	96	48	2
TAP	27	72	3
STR	27	144	4
SI_	27	144	4	96	48	0
TAP	27	216	0
TAP	27	288	2
TAP	28	0	1
TAP	28	0	7
TAP	28	48	2
TAP	28	72	3
TAP	28	96	1
TAP	28	144	5
TAP	28	168	4
TAP	28	192	6
TAP	28	216	4
TAP	28	240	5
TAP	28	288	3
TAP	28	288	6
STR	29	0	7
SI_	29	0	7	96	48	5
TAP	29	72	4
STR	29	144	3
SI_	29	144	3	96	48	7
TAP	29	216	7
TAP	29	288	5
TAP	30	0	0
TAP	30	0	6
TAP	30	48	5
TAP	30	72	4
TAP	30	96	6
TAP	30	144	2
TAP	30	168	3
TAP	30	192	1
TAP	30	216	3
TAP	30	240	2
TAP	30	288	1
TAP	30	288	4
STR	31	0	0
SI_	31	0	0	96	48	2
TAP	31	72	3
STR	31	144	4
SI_	31	144	4	96	48	0
TAP	31	216	0
TAP	31	288	2
TAP	32	0	2
TAP	32	0	7
TAP	32	48	1
TAP	32	72	0
TAP	32	96	1
TAP	32	120	0
TAP	32	144	1
TAP	32	192	6
TAP	32	216	7
TAP	32	240	6
TAP	32	264	7
TAP	32	288	6
TAP	32	336	1
TAP	32	336	5
TAP	33	0	3
TAP	33	24	4
TAP	33	48	3
TAP	33	72	4
TAP	33	96	3
TAP	33	120	4
TAP	33	144	3
TAP	33	168	4
BRK	33	192	2
BRK	33	192	5
STR	33	288	0
SCR	33	288	0	96	192	5
TAP	33	288	7
BRK	34	0	5
TAP	34	96	6
TAP	34	192	7
TAP	34	240	7
TAP	34	288	0
TAP	34	336	0
TAP	35	0	1
TAP	35	0	5
TAP	35	96	7
TAP	35	144	3
TAP	35	192	7
TAP	35	240	4
STR	35	288	7
SCL	35	288	7	96	192	2
TAP	35	336	3
TAP	36	0	2
TAP	36	96	1
TAP	36	192	0
TAP	36	240	0
TAP	36	288	6
TAP	36	336	6
HLD	37	0	2	72
TAP	37	72	3
TAP	37	144	1
TAP	37	144	4
HLD	37	192	5	72
TAP	37	264	4
TAP	37	336	3
TAP	37	336	6
TAP	38	0	3
TAP	38	0	6
TAP	38	96	1
TAP	38	96	4
STR	38	144	2
SI_	38	144	2	96	48	7
TAP	38	168	3
HLD	38	192	2	72
STR	38	336	5
SI_	38	336	5	96	48	0
TAP	38	360	4
HLD	39	0	5	72
STR	39	144	2
SI_	39	144	2	96	48	7
TAP	39	168	3
HLD	39	192	2	72
TAP	39	336	5
TAP	39	360	4
TAP	40	0	5
TAP	40	48	6
TAP	40	72	7
TAP	40	96	6
TAP	40	144	1
TAP	40	168	0
TAP	40	192	1
TAP	40	240	2
TAP	40	264	3
TAP	40	288	2
TAP	40	336	0
TAP	40	336	4
XTP	41	0	6
TAP	41	32	6
XTP	41	64	7
TAP	41	96	7
XTP	41	128	0
TAP	41	160	0
XTP	41	192	1
TAP	41	224	1
XTP	41	256	2
TAP	41	288	2
XTP	41	320	3
TAP	41	352	3
BST	42	0	4
SCR	42	0	4	96	96	7
TAP	42	96	2
TAP	42	192	1
TAP	42	240	1
TAP	42	288	7
TAP	42	336	7
HLD	43	0	1	72
TAP	43	72	0
TAP	43	144	2
TAP	43	144	7
TAP	43	192	6
TAP	43	240	6
TAP	43	288	0
TAP	43	288	5
STR	43	336	6
SI_	43	336	6	96	48	3
TAP	43	360	7
HLD	44	0	6	72
STR	44	144	1
SI_	44	144	1	96	48	4
TAP	44	168	0
HLD	44	192	1	72
TAP	44	336	6
TAP	44	360	7
TAP	45	0	6
TAP	45	48	5
TAP	45	72	4
TAP	45	96	5
TAP	45	144	2
TAP	45	168	3
TAP	45	192	2
TAP	45	240	1
TAP	45	264	0
TAP	45	288	1
TAP	45	336	2
TAP	45	336	7
TAP	46	0	3
HLD	46	0	6	48
TAP	46	48	2
HLD	46	96	1	48
TAP	46	96	4
TAP	46	144	5
TAP	46	192	3
HLD	46	192	6	48
TAP	46	240	2
HLD	46	288	1	48
TAP	46	288	5
TAP	46	336	6
TAP	47	0	7
TAP	47	24	0
TAP	47	48	7
TAP	47	72	0
TAP	47	96	7
TAP	47	120	0
TAP	47	144	7
TAP	47	168	0
TTP	47	192	6	E	0	M1
TTP	47	204	5	B	0	M1
TTP	47	216	4	B	0	M1
TTP	47	228	4	E	0	M1
TTP	47	240	2	E	0	M1
TTP	47	252	2	B	0	M1
TTP	47	264	3	B	0	M1
TTP	47	276	4	E	0	M1
TTP	47	288	0	C	1	M1
TAP	48	0	0
TAP	48	0	7
XTP	48	48	0
XTP	48	48	7
XTP	48	96	1
XTP	48	96	6
HLD	48	192	4	48
HLD	48	192	6	48
HLD	48	264	1	48
HLD	48	264	3	48
TAP	48	336	0
TAP	48	336	7
HLD	49	0	2	48
HLD	49	0	4	48
HLD	49	72	3	48
HLD	49	72	5	48
TAP	49	144	0
TAP	49	144	7
HLD	49	192	4	48
HLD	49	192	6	48
HLD	49	264	1	48
HLD	49	264	3	48
TAP	49	336	2
TAP	49	336	6
BST	50	0	7
SI_	50	0	7	96	48	3
TAP	50	24	0
TAP	50	48	6
TAP	50	72	1
TAP	50	96	7
HLD	50	192	2	48
HLD	50	192	4	48
HLD	50	264	3	48
HLD	50	264	5	48
TAP	50	336	0
TAP	50	336	7
HLD	51	0	4	48
HLD	51	0	6	48
HLD	51	72	1	48
HLD	51	72	3	48
TAP	51	144	0
TAP	51	144	7
XTP	51	192	1
TAP	51	192	6
TAP	51	288	3
XTP	51	288	4
BST	52	0	0
SI_	52	0	0	96	48	4
TAP	52	24	7
TAP	52	48	1
TAP	52	72	6
TAP	52	96	0
HLD	52	192	3	48
HLD	52	192	5	48
HLD	52	264	2	48
HLD	52	264	4	48
TAP	52	336	0
TAP	52	336	7
HLD	53	0	1	48
HLD	53	0	3	48
HLD	53	72	4	48
HLD	53	72	6	48
TAP	53	144	3
TAP	53	144	7
TAP	53	192	3
TAP	53	192	7
TAP	53	216	2
TAP	53	216	6
TAP	53	240	1
TAP	53	240	5
TAP	53	264	0
TAP	53	264	4
TAP	53	288	3
TAP	53	288	7
TAP	53	336	4
BST	54	0	0
SI_	54	0	0	96	48	4
TAP	54	24	7
TAP	54	48	1
TAP	54	72	6
TAP	54	96	0
HLD	54	192	3	48
HLD	54	192	5	48
HLD	54	264	2	48
HLD	54	264	4	48
TAP	54	336	0
TAP	54	336	7
XTP	55	0	1
XTP	55	0	6
BRK	55	96	2
TTP	55	96	7	E	0	M1
TTP	55	192	1	E	0	M1
BRK	55	192	5
BRK	55	288	3
BRK	55	288	4
TAP	56	0	0
TAP	56	0	7
TAP	56	48	0
TAP	56	48	7
TAP	56	96	1
TAP	56	96	6
TAP	56	192	3
TTP	56	192	6	E	0	M1
TAP	56	264	3
TTP	56	288	7	E	0	M1
TAP	56	336	3
TAP	57	0	4
TTP	57	0	6	E	0	M1
TAP	57	72	4
TTP	57	96	7	E	0	M1
TAP	57	144	4
TAP	57	192	3
TTP	57	192	6	E	0	M1
TAP	57	264	3
TTP	57	288	7	E	0	M1
TAP	57	336	3
XTP	58	0	4
XTP	58	0	6
TAP	58	96	3
TAP	58	96	5
TTP	58	192	2	E	0	M1
TAP	58	192	4
TAP	58	264	4
TTP	58	288	1	E	0	M1
TAP	58	336	4
TTP	59	0	2	E	0	M1
TAP	59	0	3
TAP	59	72	3
TTP	59	96	1	E	0	M1
TAP	59	144	3
XTP	59	192	1
XTP	59	192	4
XTP	59	288	3
XTP	59	288	6
BRK	60	0	1
BRK	60	0	5
TAP	60	48	1
TAP	60	96	0
TAP	60	96	1
TAP	60	144	1
TAP	60	192	1
TAP	60	192	3
TAP	60	240	1
TAP	60	288	1
TAP	60	288	7
TAP	60	336	1
TAP	61	0	2
TAP	61	0	5
TAP	61	48	5
TAP	61	96	5
TAP	61	96	7
TAP	61	144	5
TAP	61	192	4
TAP	61	192	5
TAP	61	240	5
TAP	61	288	0
TAP	61	288	5
TAP	61	336	5
TAP	62	0	2
TAP	62	24	4
TAP	62	48	2
TAP	62	72	4
TAP	62	96	1
TAP	62	120	5
TAP	62	144	1
TAP	62	168	5
TAP	62	192	0
TAP	62	216	6
TAP	62	240	0
TAP	62	264	6
XTP	62	288	7
XTP	62	300	0
XTP	62	312	1
XTP	62	324	2
XTP	62	336	6
XTP	62	348	5
XTP	62	360	4
XTP	62	372	3
XST	63	0	7
SI_	63	0	7	96	48	3
TAP	63	192	1
TAP	63	192	4
TAP	63	264	3
TAP	63	264	6
TAP	63	336	4
TAP	63	336	5
TTP	64	0	0	C	1	M1
TTP	64	0	2	B	0	M1
TTP	64	0	2	E	0	M1
TTP	64	0	3	B	0	M1
TTP	64	0	3	E	0	M1
TTP	64	0	6	B	0	M1
TTP	64	0	6	E	0	M1
TTP	64	0	7	B	0	M1
TTP	64	0	7	E	0	M1
TTP	68	0	3	B	0	M1
TTP	68	0	4	B	0	M1
TTP	68	96	1	E	0	M1
TTP	68	240	7	E	0	M1
TTP	69	0	1	B	0	M1
TTP	69	96	6	B	0	M1
TTP	69	168	2	B	0	M1
TTP	69	240	5	B	0	M1
TTP	69	288	3	E	0	M1
TTP	69	336	5	E	0	M1
XTP	70	0	3
XTP	70	24	4
XTP	70	48	3
XTP	70	72	4
TAP	70	96	3
TAP	70	120	4
TAP	70	144	3
TAP	70	168	4
TAP	70	192	3
TAP	70	216	4
TAP	70	240	3
TAP	70	264	4
TAP	70	288	3
TAP	70	312	4
TAP	70	336	3
TAP	70	360	4
THO	71	0	0	288	C	1	M1
STR	71	192	6
SI_	71	192	6	96	48	2
TAP	71	288	6
BRK	72	0	0
BRK	72	0	5
TAP	72	96	6
TAP	72	96	7
TAP	72	120	0
TAP	72	144	1
TAP	72	168	2
HLD	72	192	3	48
TAP	72	240	5
HLD	72	264	4	48
TAP	72	312	6
TAP	72	336	3
TAP	73	0	2
TAP	73	0	7
TAP	73	96	0
TAP	73	96	1
TAP	73	120	7
TAP	73	144	6
TAP	73	168	5
TAP	73	192	2
HLD	73	216	2	48
TAP	73	264	3
TAP	73	288	2
TAP	73	336	1
TAP	73	336	3
HLD	74	0	1	96
TAP	74	0	3
TAP	74	24	4
TAP	74	48	5
TAP	74	72	6
TAP	74	96	7
HLD	74	144	1	96
TAP	74	144	3
TAP	74	168	4
TAP	74	192	5
TAP	74	216	6
TAP	74	240	7
HLD	74	288	2	96
TAP	74	288	4
TAP	74	312	5
TAP	74	336	6
TAP	74	360	7
TAP	75	0	0
TAP	75	48	3
TAP	75	96	4
TAP	75	96	6
TAP	75	144	5
TAP	75	192	2
TAP	75	192	4
TAP	75	240	3
TAP	75	288	2
TAP	75	288	4
TAP	75	336	1
HLD	76	0	0	48
TAP	76	0	3
TAP	76	48	2
HLD	76	72	1	48
TAP	76	120	3
HLD	76	144	2	48
TAP	76	192	4
HLD	76	216	3	48
TAP	76	264	5
TAP	76	288	4
TAP	76	312	5
TAP	76	336	4
TAP	76	360	5
HLD	77	0	4	48
TAP	77	48	6
TAP	77	72	5
TAP	77	96	6
TAP	77	144	4
TAP	77	192	3
TAP	77	192	7
TAP	77	240	6
TAP	77	288	2
TAP	77	288	5
TAP	77	336	1
TAP	78	0	0
TAP	78	0	7
TAP	78	48	1
TAP	78	48	6
TAP	78	96	2
TAP	78	120	3
TAP	78	144	1
TAP	78	168	5
TAP	78	192	4
TAP	78	216	6
TAP	78	240	1
TAP	78	264	3
TAP	78	288	2
TAP	78	312	6
TAP	78	336	4
TAP	78	360	5
HLD	79	0	1	48
HLD	79	48	3	48
HLD	79	96	5	48
HLD	79	144	7	48
TAP	79	192	0
TAP	79	216	7
TAP	79	240	0
TAP	79	264	7
BRK	79	288	1
BRK	79	288	6
XTP	80	0	3
XST	80	0	4
SI_	80	0	4	96	48	0
TAP	80	96	4
TAP	80	96	5
TAP	80	144	6
TAP	80	192	1
TAP	80	192	7
TAP	80	240	5
TAP	80	264	4
TAP	80	312	2
TAP	80	336	3
TAP	81	0	1
TAP	81	0	4
TAP	81	48	6
TAP	81	72	7
TAP	81	120	5
TAP	81	144	4
TAP	81	192	2
TAP	81	192	7
TAP	81	216	6
TAP	81	240	5
TAP	81	264	4
TAP	81	288	3
TAP	81	288	7
TAP	81	312	0
TAP	81	336	1
TAP	81	360	2
STR	82	0	3
SI_	82	0	3	96	48	7
TAP	82	0	4
TAP	82	96	2
TAP	82	96	3
TAP	82	144	1
TAP	82	192	0
TAP	82	192	6
TAP	82	240	2
TAP	82	264	3
TAP	82	312	5
TAP	82	336	4
TAP	83	0	3
TAP	83	0	6
TAP	83	48	1
TAP	83	72	0
TAP	83	120	6
TAP	83	144	7
TAP	83	192	3
TAP	83	192	5
TAP	83	240	2
TAP	83	288	0
TAP	83	288	1
TAP	83	312	7
TAP	83	336	6
TAP	83	360	5
TAP	84	0	3
STR	84	0	4
SI_	84	0	4	96	48	0
TAP	84	96	4
TAP	84	96	5
TAP	84	144	6
TAP	84	192	1
TAP	84	192	7
TAP	84	240	2
TAP	84	264	3
TAP	84	312	5
TAP	84	336	4
TAP	85	0	0
TAP	85	24	7
TAP	85	48	0
TAP	85	72	7
TAP	85	96	1
TAP	85	120	3
TAP	85	144	1
TAP	85	168	3
TAP	85	192	2
TAP	85	216	4
TAP	85	240	2
TAP	85	264	4
TAP	85	288	3
TAP	85	312	5
TAP	85	336	3
TAP	85	360	5
HLD	86	0	4	72
HLD	86	72	6	72
TAP	86	144	0
TAP	86	192	2
TAP	86	192	5
TAP	86	240	1
TAP	86	240	6
TAP	86	288	0
TAP	86	312	7
TAP	86	336	0
TAP	86	360	7
TAP	87	0	1
TAP	87	24	3
TAP	87	48	2
TAP	87	72	4
TAP	87	96	3
TAP	87	120	5
TAP	87	144	4
TAP	87	168	6
XTP	87	192	1
TAP	87	204	2
TAP	87	216	3
TAP	87	228	4
TAP	87	240	5
TAP	87	252	6
TAP	87	264	7
TAP	87	276	0
BRK	87	288	1
BRK	87	288	5
STR	88	0	7
SCL	88	0	7	96	72	2
BRK	88	96	1
TAP	88	96	7
STR	88	192	7
SCR	88	192	7	96	72	4
BRK	88	288	5
TAP	88	288	7
STR	89	0	7
SCL	89	0	7	96	72	2
BRK	89	96	1
TAP	89	96	7
STR	89	192	7
SF_	89	192	7	96	48	3
BRK	89	288	7
XST	90	0	0
SCR	90	0	0	96	72	5
XTP	90	0	4
BRK	90	96	0
BRK	90	96	6
STR	90	192	0
SCL	90	192	0	96	72	3
BRK	90	288	0
BRK	90	288	2
STR	91	0	0
SCR	91	0	0	96	72	5
BRK	91	96	0
BRK	91	96	6
STR	91	192	0
SF_	91	192	0	96	48	4
BRK	91	288	0
XTP	92	0	3
XST	92	0	7
SCL	92	0	7	96	72	2
TTP	92	96	0	C	1	M1
TTP	92	96	1	B	0	M1
BRK	92	96	7
STR	92	192	7
SCR	92	192	7	96	72	4
TTP	92	288	0	C	1	M1
TTP	92	288	5	B	0	M1
BRK	92	288	7
STR	93	0	7
SCL	93	0	7	96	72	2
TTP	93	96	0	C	1	M1
TTP	93	96	1	B	0	M1
BRK	93	96	7
STR	93	192	7
SCR	93	192	7	96	72	4
TTP	93	288	0	C	1	M1
TTP	93	288	5	B	0	M1
BRK	93	288	7
STR	94	0	0
SF_	94	0	0	96	48	4
BRK	94	96	0
TTP	94	104	0	C	1	M1
STR	94	192	7
SF_	94	192	7	96	48	3
BRK	94	288	7
TTP	94	296	0	C	1	M1
XST	95	0	1
SI_	95	0	1	96	48	4
XST	95	0	5
SI_	95	0	5	96	48	0
XTP	95	48	1
XTP	95	48	5
XTP	95	96	1
XTP	95	96	5
BRK	95	192	2
BRK	95	192	6
XST	96	0	4
SI_	96	0	4	96	48	0
XTP	96	0	5
TAP	96	48	5
TAP	96	96	5
TAP	96	144	5
XST	96	192	0
SCR	96	192	0	96	48	3
TAP	96	192	6
TAP	96	240	6
TAP	96	288	6
TAP	96	336	6
XST	97	0	4
SCL	97	0	4	96	48	1
TAP	97	0	5
TAP	97	48	5
TAP	97	96	5
TAP	97	144	5
XTP	97	192	0
TAP	97	192	6
TAP	97	240	6
TAP	97	288	3
TAP	97	288	5
TAP	97	336	4
XTP	98	0	2
XST	98	0	3
SI_	98	0	3	96	48	7
TAP	98	48	2
TAP	98	96	2
TAP	98	144	2
TAP	98	192	1
XST	98	192	7
SCL	98	192	7	96	48	4
TAP	98	240	1
TAP	98	288	1
TAP	98	336	1
TAP	99	0	2
XST	99	0	3
SCR	99	0	3	96	48	6
TAP	99	48	2
TAP	99	96	2
TAP	99	144	2
TAP	99	192	1
XST	99	192	7
SI_	99	192	7	96	48	4
TAP	99	240	1
TAP	99	288	1
TAP	99	336	1
TAP	100	0	0
TAP	100	24	7
TAP	100	48	0
TAP	100	72	7
TAP	100	96	2
TAP	100	120	4
TAP	100	144	2
TAP	100	168	4
TAP	100	192	3
TAP	100	216	5
TAP	100	240	3
TAP	100	264	5
TAP	100	288	4
TAP	100	312	6
TAP	100	336	4
TAP	100	360	6
TAP	101	0	3
TAP	101	24	7
TAP	101	48	2
TAP	101	72	6
TAP	101	96	1
TAP	101	120	5
TAP	101	144	0
TAP	101	168	4
XTP	101	192	3
XTP	101	192	7
XTP	101	264	1
XTP	101	264	4
XTP	101	336	3
XTP	101	336	6
XST	102	0	2
SCL	102	0	2	96	48	6
XTP	102	24	3
XTP	102	48	2
XTP	102	72	3
BRK	102	96	2
TTP	102	104	2	E	0	M1
TTP	102	112	1	E	0	M1
TTP	102	120	0	E	0	M1
TTP	102	128	7	E	0	M1
XST	102	192	5
SCR	102	192	5	96	48	1
XTP	102	216	4
XTP	102	240	5
XTP	102	264	4
BRK	102	288	5
TTP	102	296	6	E	0	M1
TTP	102	304	7	E	0	M1
TTP	102	312	0	E	0	M1
TTP	102	320	1	E	0	M1
XTP	103	0	2
XTP	103	12	3
TAP	103	24	4
TAP	103	36	5
TAP	103	48	6
TAP	103	60	7
TAP	103	72	0
TAP	103	84	1
XTP	103	96	2
TAP	103	108	3
TAP	103	120	4
TAP	103	132	5
TAP	103	144	6
TAP	103	156	7
TAP	103	168	0
TAP	103	180	1
TTP	103	192	0	C	1	M1
XTP	103	192	2
BRK	103	288	0
BRK	103	288	7
HLD	104	0	1	48
HLD	104	0	3	48
HLD	104	72	2	48
HLD	104	72	4	48
HLD	104	144	3	48
HLD	104	144	5	48
HLD	104	216	4	48
HLD	104	216	6	48
BRK	104	288	3
BRK	104	288	7
TTP	105	0	7	E	0	M1
TTP	105	24	6	B	0	M1
TTP	105	48	5	B	0	M1
TTP	105	72	5	E	0	M1
TTP	105	96	2	E	0	M1
TTP	105	120	1	B	0	M1
TTP	105	144	0	B	0	M1
TTP	105	168	0	E	0	M1
TTP	105	192	6	E	0	M1
TTP	105	216	5	E	0	M1
TTP	105	240	4	E	0	M1
TTP	105	264	3	E	0	M1
TTP	105	288	2	E	0	M1
XHO	106	0	4	48
XHO	106	0	6	48
HLD	106	72	3	48
HLD	106	72	5	48
HLD	106	144	2	48
HLD	106	144	4	48
HLD	106	216	1	48
HLD	106	216	3	48
BRK	106	288	0
BRK	106	288	4
XTP	107	0	1
XTP	107	0	5
XTP	107	8	2
XTP	107	8	6
XHO	107	16	3	128
XHO	107	16	7	128
XTP	107	152	2
XTP	107	152	6
XTP	107	160	1
XTP	107	160	5
XHO	107	168	0	72
XHO	107	168	4	72
BRK	107	288	2
BRK	107	288	6
HLD	108	0	1	48
HLD	108	0	3	48
HLD	108	72	2	48
HLD	108	72	4	48
HLD	108	144	3	48
HLD	108	144	5	48
HLD	108	216	4	48
HLD	108	216	6	48
BRK	108	288	3
BRK	108	288	7
TTP	109	0	3	E	0	M1
TTP	109	24	2	B	0	M1
TTP	109	48	1	B	0	M1
TTP	109	72	1	E	0	M1
TTP	109	96	6	E	0	M1
TTP	109	120	5	B	0	M1
TTP	109	144	4	B	0	M1
TTP	109	168	4	E	0	M1
TTP	109	192	2	E	0	M1
TTP	109	216	1	E	0	M1
TTP	109	240	0	E	0	M1
TTP	109	264	7	E	0	M1
TTP	109	288	6	E	0	M1
XHO	110	0	4	48
XHO	110	0	6	48
HLD	110	72	3	48
HLD	110	72	5	48
HLD	110	144	2	48
HLD	110	144	4	48
HLD	110	216	1	48
HLD	110	216	3	48
BRK	110	288	0
BRK	110	288	4
TAP	111	0	5
TAP	111	24	1
TAP	111	48	5
TAP	111	72	1
TAP	111	96	6
TAP	111	120	2
TAP	111	144	7
TAP	111	168	3
TAP	111	192	6
TAP	111	216	2
TAP	111	240	5
TAP	111	264	1
BRK	111	288	0
BRK	111	288	4
TAP	112	0	3
TTP	112	0	6	B	0	M1
TTP	112	0	6	E	0	M1
TAP	112	72	3
TTP	112	96	0	E	0	M1
TAP	112	144	3
TAP	112	192	4
TTP	112	192	6	B	0	M1
TTP	112	192	6	E	0	M1
TAP	112	264	4
TTP	112	288	0	E	0	M1
TAP	112	336	4
TAP	113	0	3
TTP	113	0	6	B	0	M1
TTP	113	0	6	E	0	M1
TAP	113	72	3
TTP	113	96	0	E	0	M1
TAP	113	144	3
XTP	113	192	0
XTP	113	192	7
TAP	113	288	3
TAP	113	288	5
TTP	114	0	1	B	0	M1
TTP	114	0	2	E	0	M1
TAP	114	0	4
TAP	114	72	4
TTP	114	96	0	E	0	M1
TAP	114	144	4
TTP	114	192	1	B	0	M1
TTP	114	192	2	E	0	M1
TAP	114	192	3
TAP	114	264	3
TTP	114	288	0	E	0	M1
TAP	114	336	3
TTP	115	0	1	B	0	M1
TTP	115	0	2	E	0	M1
TAP	115	0	4
TAP	115	72	4
TTP	115	96	0	E	0	M1
TAP	115	144	4
XST	115	192	0
SSL	115	192	0	96	48	4
XST	115	192	7
SSR	115	192	7	96	48	3
XTP	115	288	0
XTP	115	288	7
TAP	116	0	1
TAP	116	24	7
TAP	116	48	1
TAP	116	72	7
TAP	116	96	3
TAP	116	120	6
TAP	116	144	3
TAP	116	168	6
TAP	116	192	0
TAP	116	216	5
TAP	116	240	0
TAP	116	264	5
TAP	116	288	2
TAP	116	312	4
TAP	116	336	2
TAP	116	360	4
TAP	117	0	1
TAP	117	24	3
TAP	117	48	2
TAP	117	72	4
TAP	117	96	3
TAP	117	120	5
TAP	117	144	4
TAP	117	168	6
XTP	117	192	0
TAP	117	204	1
TAP	117	216	2
TAP	117	228	3
XTP	117	240	7
TAP	117	252	6
TAP	117	264	5
TAP	117	276	4
XTP	117	288	1
TAP	117	300	2
TAP	117	312	3
TAP	117	324	4
XTP	117	336	6
TAP	117	348	5
TAP	117	360	4
TAP	117	372	3
XHO	118	0	0	96
BRK	118	0	2
XHO	118	144	4	96
BRK	118	144	6
TTP	118	288	0	C	1	M1
BST	118	288	1
SXR	118	288	1	96	168	5
STR	119	288	7
SI_	119	288	7	96	48	3
TAP	119	312	1
TAP	119	336	5
TAP	119	360	3
BRK	120	0	7

T_REC_TAP	714
T_REC_BRK	57
T_REC_XTP	96
T_REC_HLD	129
T_REC_XHO	11
T_REC_STR	36
T_REC_BST	6
T_REC_XST	18
T_REC_TTP	110
T_REC_THO	1
T_REC_SLD	60
T_REC_ALL	1238
T_NUM_TAP	974
T_NUM_BRK	63
T_NUM_HLD	141
T_NUM_SLD	60
T_NUM_ALL	1238
T_JUDGE_TAP	1037
T_JUDGE_HLD	203
T_JUDGE_SLD	60
T_JUDGE_ALL	1300
TTM_EACHPAIRS	212
TTM_SCR_TAP	487000
TTM_SCR_BRK	163800
TTM_SCR_HLD	141000
TTM_SCR_SLD	90000
TTM_SCR_ALL	881800
TTM_SCR_S	849250
TTM_SCR_SS	875500
TTM_RAT_ACV	10071

